<?xml version="1.0" standalone="no"?>
<!DOCTYPE svg PUBLIC "-//W3C//DTD SVG 1.1//EN" "http://www.w3.org/Graphics/SVG/1.1/DTD/svg11.dtd" >
<svg xmlns="http://www.w3.org/2000/svg" xmlns:xlink="http://www.w3.org/1999/xlink" version="1.1">
<metadata>
Created by FontForge 20161013 at Sun Jul 23 14:12:04 2017
 By ,,,
Copyright (c)2016. Cerebri Sans is a trademark of Alfredo Marco Pradil. All rights reserved.
</metadata>
<defs>
<font id="CerebriSans-SemiBoldItalic" horiz-adv-x="0" >
  <font-face 
    font-family="Cerebri Sans SemiBold Italic"
    font-weight="600"
    font-style="italic"
    font-stretch="normal"
    units-per-em="2048"
    panose-1="0 0 7 0 0 0 0 0 0 0"
    ascent="1536"
    descent="-512"
    x-height="1008"
    cap-height="1428"
    bbox="-1651 -585 2883 2383"
    underline-thickness="82"
    underline-position="-348"
    slope="-10"
    unicode-range="U+0020-FB02"
  />
<missing-glyph horiz-adv-x="1315" 
d="M254 0v1536h899v-1536h-899zM445 191h517v1154h-517v-1154z" />
    <glyph glyph-name="fi" unicode="fi" horiz-adv-x="1230" 
d="M760 1008l-33 -183h-223l-146 -825h-235l145 825h-196l33 183h195l39 219q59 329 344 329q80 0 161 -28l-15 -169q-43 11 -87 11q-63 0 -110 -40.5t-59 -111.5l-37 -210h224zM1125 1511q60 0 99.5 -43.5t32.5 -104.5q-7 -62 -56 -106t-109 -44q-62 0 -101 44t-33 106
q6 61 55 104.5t112 43.5zM740 0l179 1013h251l-180 -1013h-250z" />
    <glyph glyph-name="fl" unicode="fl" horiz-adv-x="1217" 
d="M760 1008l-33 -183h-223l-146 -825h-235l145 825h-196l33 183h195l39 219q59 329 344 329q80 0 161 -28l-15 -169q-43 11 -87 11q-63 0 -110 -40.5t-59 -111.5l-37 -210h224zM1010 1536h239l-271 -1536h-239z" />
    <glyph glyph-name="f_f" unicode="ff" horiz-adv-x="1350" 
d="M124 0l146 820h-198l34 193h198l37 206q56 337 352 337q81 0 165 -29l-16 -176q-49 11 -91 11q-61 0 -106.5 -39t-57.5 -112l-34 -198h406l37 206q28 171 115.5 254t236.5 83q81 0 165 -29l-16 -176q-50 11 -91 11q-61 0 -106.5 -39t-57.5 -112l-34 -198h226l-34 -193
h-226l-146 -820h-249l146 820h-407l-145 -820h-249z" />
    <glyph glyph-name=".notdef" horiz-adv-x="1315" 
d="M254 0v1536h899v-1536h-899zM445 191h517v1154h-517v-1154z" />
    <glyph glyph-name=".null" 
 />
    <glyph glyph-name="nonmarkingreturn" horiz-adv-x="682" 
 />
    <glyph glyph-name="space" unicode=" " horiz-adv-x="532" 
 />
    <glyph glyph-name="exclam" unicode="!" horiz-adv-x="641" 
d="M206 440l151 993h251l-198 -993h-204zM243 -20q-68 0 -108 49t-28 117q10 55 55 93t100 38q68 0 108.5 -49t27.5 -118q-9 -54 -54.5 -92t-100.5 -38z" />
    <glyph glyph-name="quotedbl" unicode="&#x22;" horiz-adv-x="1020" 
d="M274 783l84 650h237l-137 -650h-184zM662 783l91 650h235l-143 -650h-183z" />
    <glyph glyph-name="numbersign" unicode="#" horiz-adv-x="1529" 
d="M221 0l105 333h-279l55 179h281l131 407h-283l61 177h275l111 339h180l-106 -339h342l108 339h182l-108 -339h282l-60 -177h-278l-129 -407h279l-57 -179h-278l-110 -333h-178l106 333h-348l-105 -333h-179zM565 512h343l131 407h-347z" />
    <glyph glyph-name="dollar" unicode="$" horiz-adv-x="1342" 
d="M791 824q78 -22 131.5 -41t117.5 -55.5t99.5 -79.5t54 -110.5t3.5 -151.5q-18 -101 -70 -178.5t-128 -125t-165.5 -73t-191.5 -29.5l-24 -136h-105l24 138q-203 16 -324 124.5t-122 284.5l274 46q-3 -106 54 -167.5t156 -72.5l78 442l-18 6q-96 27 -157.5 53t-126.5 72.5
t-89 118.5t-7 169q33 185 183.5 288t357.5 105l23 131h106l-24 -137q84 -10 154 -36.5t125.5 -71t88 -111.5t35.5 -150l-256 -47q-6 183 -185 204zM512 1028q-6 -34 4.5 -60t38 -46.5t58 -34.5t78.5 -31l66 377q-94 -12 -161.5 -64t-83.5 -141zM932 410q7 38 -3.5 68.5
t-38 53.5t-59 39t-79.5 34l-72 -407q100 12 168.5 65.5t83.5 146.5z" />
    <glyph glyph-name="percent" unicode="%" horiz-adv-x="1624" 
d="M477 810q-123 0 -202.5 80.5t-79.5 200.5q0 90 48 173t132.5 136t182.5 53q124 0 203.5 -81t79.5 -200q0 -139 -107.5 -250.5t-256.5 -111.5zM231 -1l1008 1435h219l-1009 -1435h-218zM485 980q76 0 132 55t56 130q0 50 -35.5 84.5t-87.5 34.5q-74 0 -130 -56t-56 -132
q0 -51 34.5 -83.5t86.5 -32.5zM1143 -17q-124 0 -204 80t-80 200q0 91 48.5 174.5t133.5 135.5t183 52q121 0 200.5 -79.5t79.5 -198.5q0 -90 -47 -173.5t-131 -137t-183 -53.5zM1151 153q74 0 131 55.5t57 129.5q0 50 -35.5 84t-86.5 34q-76 0 -132.5 -54.5t-56.5 -130.5
q0 -51 34.5 -84.5t88.5 -33.5z" />
    <glyph glyph-name="ampersand" unicode="&#x26;" horiz-adv-x="1538" 
d="M511 -20q-202 0 -322 90.5t-120 255.5q0 64 10 111t38 98t81 100t136 106.5t206 128.5q-53 88 -76 145.5t-23 113.5q0 144 112 234t290 90q159 0 249.5 -71t90.5 -186q0 -110 -78.5 -200t-264.5 -192l210 -345q163 187 198 382l225 -18q-26 -149 -105 -291.5t-197 -259.5
l172 -272h-282l-76 131q-230 -151 -474 -151zM740 959q222 128 222 242q0 40 -28.5 62.5t-80.5 22.5q-78 0 -128.5 -48.5t-50.5 -119.5q0 -7 0.5 -14t1 -12.5t3 -12.5t3.5 -11.5t5.5 -13.5t6.5 -13.5t9 -16.5t10 -18t12.5 -22t14.5 -25zM526 187q177 0 350 122l-233 393
q-78 -44 -127 -75t-94.5 -66t-69.5 -67t-38 -70t-14 -83q0 -77 59 -115.5t167 -38.5z" />
    <glyph glyph-name="quotesingle" unicode="'" horiz-adv-x="629" 
d="M271 783l91 650h235l-143 -650h-183z" />
    <glyph glyph-name="parenleft" unicode="(" horiz-adv-x="677" 
d="M330 -574q-175 140 -238.5 433.5t2.5 683.5q66 373 228 663t382 429l124 -179q-175 -105 -316.5 -360t-199.5 -589q-58 -329 -10 -574.5t187 -348.5z" />
    <glyph glyph-name="parenright" unicode=")" horiz-adv-x="677" 
d="M-20 -585l-125 180q176 105 317 359t200 589q57 327 9.5 574t-185.5 350l158 157q175 -140 238.5 -434.5t-2.5 -682.5q-67 -375 -228.5 -664.5t-381.5 -427.5z" />
    <glyph glyph-name="asterisk" unicode="*" horiz-adv-x="977" 
d="M422 841l-113 73l189 205q26 26 23.5 39t-34.5 8l-266 -32l23 139l240 -35q31 -5 51.5 17t7.5 47l-129 194l127 69l56 -242q4 -20 16 -23.5t25.5 7.5t23.5 32l137 226l116 -69l-191 -208q-26 -25 -24 -38.5t35 -8.5l266 32l-23 -139l-241 35q-32 5 -52 -16.5t-5 -47.5
l130 -191l-130 -73l-55 243q-4 20 -16 23.5t-26 -7.5t-24 -32z" />
    <glyph glyph-name="plus" unicode="+" horiz-adv-x="1195" 
d="M534 206v392h-392v193h392v391h193v-391h392v-193h-392v-392h-193z" />
    <glyph glyph-name="comma" unicode="," horiz-adv-x="647" 
d="M-7 -366l238 643h261l-315 -643h-184z" />
    <glyph glyph-name="hyphen" unicode="-" horiz-adv-x="1010" 
d="M132 428l37 209h717l-37 -209h-717z" />
    <glyph glyph-name="period" unicode="." horiz-adv-x="639" 
d="M243 -20q-67 0 -107 49t-29 117q10 54 55.5 92.5t99.5 38.5q68 0 108.5 -50t27.5 -117q-9 -54 -55 -92t-100 -38z" />
    <glyph glyph-name="slash" unicode="/" horiz-adv-x="861" 
d="M-174 -395l995 1931h237l-995 -1931h-237z" />
    <glyph glyph-name="zero" unicode="0" horiz-adv-x="1200" 
d="M525 -20q-251 0 -353 191.5t-37 563.5q64 359 221 538t395 179q250 0 352 -190.5t36 -562.5q-63 -358 -221 -538.5t-393 -180.5zM531 207q129 0 223.5 131.5t141.5 396.5q86 491 -152 491q-129 0 -223.5 -130t-141.5 -397q-86 -492 152 -492z" />
    <glyph glyph-name="one" unicode="1" horiz-adv-x="1200" 
d="M738 1433h239l-253 -1433h-249l208 1169l-385 -301l41 260z" />
    <glyph glyph-name="two" unicode="2" horiz-adv-x="1200" 
d="M1147 1026q-19 -103 -79 -192.5t-175 -192.5l-486 -417h639l-40 -224h-994l30 188l672 593q183 160 194 292q10 85 -35.5 131t-132.5 46q-109 0 -187 -66t-99 -189q-11 -60 -7 -137l-245 40q0 77 9 129q35 199 179 313t353 114q210 0 324 -115t80 -313z" />
    <glyph glyph-name="three" unicode="3" horiz-adv-x="1200" 
d="M518 -20q-106 0 -193.5 28.5t-150.5 83.5t-89 145t-5 204q7 42 16 71l261 -4q-22 -53 -31 -101q-18 -103 39.5 -155t158.5 -52q126 0 211 69.5t103 180.5q19 104 -32.5 158t-155.5 54h-68l34 198h50q79 0 147 61.5t84 151.5q12 77 -32.5 119.5t-128.5 42.5
q-96 0 -166 -54t-86 -148q-7 -27 -4 -57l-247 27q0 40 6 66q20 116 93.5 204t179 133.5t226.5 45.5q197 0 307.5 -113.5t81.5 -280.5q-18 -102 -85.5 -176.5t-152.5 -107.5q47 -13 86 -41.5t70.5 -75t41.5 -109t-3 -145.5q-34 -193 -189 -308t-377 -115z" />
    <glyph glyph-name="four" unicode="4" horiz-adv-x="1200" 
d="M1150 501l-39 -224h-189l-49 -277h-250l49 277h-667l35 225l701 931h385l-165 -932h189zM287 501h425l136 771z" />
    <glyph glyph-name="five" unicode="5" horiz-adv-x="1200" 
d="M1168 1207h-596l-73 -280h137q272 0 388.5 -122.5t76.5 -349.5q-38 -215 -192.5 -345t-371.5 -130q-104 0 -192 32t-149 90.5t-86.5 148t-6.5 197.5q9 44 15 62l252 -2q-19 -54 -22 -79q-20 -112 37 -165.5t155 -53.5q123 0 208.5 73.5t105.5 186.5q22 122 -40 184.5
t-236 62.5h-381l196 715h815z" />
    <glyph glyph-name="six" unicode="6" horiz-adv-x="1200" 
d="M740 972q94 -9 169.5 -47t127 -101t71.5 -156.5t1 -205.5q-24 -139 -112.5 -250t-214 -170.5t-261.5 -59.5q-148 0 -258.5 66t-160.5 183.5t-24 261.5q30 169 177 337l569 603h292l-435 -459q30 1 59 -2zM871 504q21 119 -39 191t-178 72q-127 0 -225 -86.5t-120 -212.5
q-22 -120 36 -190t177 -70q129 0 228 82.5t121 213.5z" />
    <glyph glyph-name="seven" unicode="7" horiz-adv-x="1200" 
d="M270 1433h999l-32 -197l-883 -1236h-290l879 1209h-713z" />
    <glyph glyph-name="eight" unicode="8" horiz-adv-x="1200" 
d="M525 -20q-202 0 -327 100.5t-125 271.5q0 148 80.5 263.5t229.5 180.5q-57 37 -90 98.5t-33 139.5q0 81 36 157t99 134t156.5 92.5t200.5 34.5q175 0 283 -89t108 -234q0 -111 -59.5 -202.5t-164.5 -150.5q83 -39 131.5 -115t48.5 -179q0 -99 -41.5 -190t-114.5 -160
t-182 -110.5t-236 -41.5zM658 860q110 0 182 74t72 162q0 68 -49 112t-124 44q-104 0 -179.5 -67t-75.5 -170q0 -69 48 -112t126 -43zM536 206q148 0 234.5 92.5t86.5 208.5q0 84 -58 133t-152 49q-136 0 -229 -85t-93 -215q0 -86 58 -134.5t153 -48.5z" />
    <glyph glyph-name="nine" unicode="9" horiz-adv-x="1200" 
d="M752 1451q147 0 258.5 -66t162.5 -184t24 -262q-35 -171 -181 -336l-567 -603h-297l435 459q-28 -1 -55 2q-188 18 -296 160.5t-72 350.5q24 138 113 249t214 170.5t261 59.5zM962 965q22 119 -35.5 189t-176.5 70q-128 0 -227.5 -82.5t-120.5 -212.5
q-21 -118 38.5 -190.5t178.5 -72.5q127 0 224 86.5t119 212.5z" />
    <glyph glyph-name="colon" unicode=":" horiz-adv-x="619" 
d="M350 649q-67 0 -106.5 49.5t-28.5 117.5q10 53 55.5 91.5t99.5 38.5q67 0 107.5 -49.5t29.5 -116.5q-10 -55 -56 -93t-101 -38zM233 -20q-67 0 -107 49t-29 117q10 54 55.5 92.5t99.5 38.5q68 0 108.5 -50t27.5 -117q-10 -54 -55.5 -92t-99.5 -38z" />
    <glyph glyph-name="semicolon" unicode=";" horiz-adv-x="641" 
d="M391 649q-68 0 -108 49.5t-28 117.5q9 53 55 91.5t101 38.5q66 0 107 -49.5t30 -116.5q-10 -54 -56.5 -92.5t-100.5 -38.5zM-40 -366l238 643h261l-316 -643h-183z" />
    <glyph glyph-name="less" unicode="&#x3c;" horiz-adv-x="1417" 
d="M1271 1424v-214l-931 -470l931 -470v-217l-1131 572v231z" />
    <glyph glyph-name="equal" unicode="=" horiz-adv-x="1250" 
d="M216 817v194h843v-194h-843zM216 389v193h843v-193h-843z" />
    <glyph glyph-name="greater" unicode="&#x3e;" horiz-adv-x="1416" 
d="M228 1424l1131 -568v-231l-1131 -572v217l932 470l-932 470v214z" />
    <glyph glyph-name="question" unicode="?" horiz-adv-x="1039" 
d="M399 429l21 122q12 65 43 111.5t71 74.5t112 64q150 57 183 231q18 103 -29.5 158.5t-141.5 55.5q-106 0 -185.5 -69.5t-98.5 -177.5q-6 -38 -5 -76l-212 42q2 43 9 89q32 178 168 288.5t325 110.5q202 0 311 -124t74 -327q-49 -266 -294 -367q-115 -33 -133 -126
l-13 -80h-205zM443 -20q-68 0 -108 48.5t-28 117.5q10 54 55.5 92t99.5 38q66 0 106 -48.5t28 -117.5q-10 -55 -54.5 -92.5t-98.5 -37.5z" />
    <glyph glyph-name="at" unicode="@" horiz-adv-x="1757" 
d="M773 -213q-190 0 -340.5 84t-233.5 231t-83 330q0 122 41 248.5t120.5 240.5t186.5 203t249.5 142t298.5 53q192 0 342 -84t231.5 -230t81.5 -328q0 -99 -25 -192t-71.5 -168.5t-121.5 -121t-168 -45.5q-196 0 -246 130h-17q-99 -125 -264 -125q-100 0 -165 48.5
t-65 137.5q0 112 79.5 175t227.5 92l217 42q2 12 6 36.5t5 34.5q3 52 -30 78t-86 26q-65 0 -117.5 -35t-63.5 -98l-148 54q29 97 115 148t215 51q59 0 109 -12t92.5 -37t66.5 -70t24 -106q0 -33 -27.5 -179t-27.5 -172q0 -43 23 -63.5t74 -20.5q66 0 115.5 37.5t75 98.5
t37.5 124.5t12 129.5q0 220 -138.5 356.5t-361.5 136.5q-119 0 -227 -35t-189 -94t-147 -134.5t-107.5 -158.5t-63.5 -163.5t-22 -151.5q0 -213 142.5 -353.5t364.5 -140.5q176 0 346 97l61 -143q-185 -104 -403 -104zM813 284q74 0 138 52t82 143l11 62l-167 -42
q-89 -19 -130 -58.5t-41 -85.5q0 -71 107 -71z" />
    <glyph glyph-name="A" unicode="A" horiz-adv-x="1412" 
d="M1042 0l-56 316h-621l-168 -316h-256l777 1428h298l276 -1428h-250zM476 525h473l-119 667z" />
    <glyph glyph-name="B" unicode="B" horiz-adv-x="1264" 
d="M970 741q195 -70 195 -288q0 -63 -13 -121t-50.5 -120.5t-96 -107.5t-158 -74.5t-227.5 -29.5h-521l252 1428h391q224 0 329 -84t105 -236q0 -262 -206 -367zM952 1061q0 77 -48 118t-182 41h-172l-68 -393h189q138 0 209.5 66.5t71.5 167.5zM608 212q89 0 155 20.5
t102 55.5t53 75.5t17 87.5q0 182 -227 182h-260l-72 -421h232z" />
    <glyph glyph-name="C" unicode="C" horiz-adv-x="1530" 
d="M736 -20q-280 0 -449.5 159.5t-169.5 432.5q0 168 60 325.5t166.5 280t268 196.5t351.5 74q232 0 391 -112t207 -306l-239 -71q-32 126 -129.5 193.5t-239.5 67.5q-131 0 -244.5 -54.5t-188.5 -143.5t-118 -202.5t-43 -232.5q0 -178 106.5 -278t280.5 -100q150 0 280 74
t207 202l217 -102q-113 -191 -302.5 -297t-411.5 -106z" />
    <glyph glyph-name="D" unicode="D" horiz-adv-x="1448" 
d="M99 0l252 1428h484q278 0 423 -146.5t145 -399.5q0 -89 -14 -176.5t-44.5 -175.5t-75.5 -165.5t-111 -145t-146.5 -116t-186 -76t-226.5 -27.5h-500zM383 219h228q95 0 176 28.5t138.5 78t101.5 113.5t70 139t38.5 149.5t12.5 149.5q0 161 -85.5 247t-260.5 86h-244z" />
    <glyph glyph-name="E" unicode="E" horiz-adv-x="1099" 
d="M1113 1210h-552l-68 -388h488l-38 -216h-488l-68 -387h551l-38 -219h-801l252 1428h801z" />
    <glyph glyph-name="F" unicode="F" horiz-adv-x="1062" 
d="M1123 1210h-562l-69 -388h490l-39 -216h-489l-107 -606h-248l252 1428h811z" />
    <glyph glyph-name="G" unicode="G" horiz-adv-x="1609" 
d="M723 -20q-275 0 -441.5 157.5t-166.5 428.5q0 135 37 264t110 240.5t173.5 196t236 133t289.5 48.5q207 0 357.5 -90t215.5 -252l-228 -101q-41 114 -132.5 169.5t-219.5 55.5q-136 0 -250.5 -57.5t-189 -152t-115.5 -213t-41 -243.5q0 -176 103 -271t289 -95
q179 0 314.5 93t193.5 270l-430 -7l36 201h666l-134 -755h-196l45 223q-189 -243 -522 -243z" />
    <glyph glyph-name="H" unicode="H" horiz-adv-x="1525" 
d="M1255 1428h245l-253 -1428h-246l108 608h-656l-108 -608h-246l252 1428h247l-107 -604h657z" />
    <glyph glyph-name="I" unicode="I" horiz-adv-x="623" 
d="M99 0l252 1428h245l-252 -1428h-245z" />
    <glyph glyph-name="J" unicode="J" horiz-adv-x="961" 
d="M291 -20q-174 0 -344 96l129 196q87 -68 196 -68q107 0 177.5 70.5t92.5 201.5l168 952h247l-180 -1014q-36 -207 -167 -320.5t-319 -113.5z" />
    <glyph glyph-name="K" unicode="K" horiz-adv-x="1360" 
d="M788 742l-1 -10l442 -732h-292l-372 640h-108l-113 -640h-245l252 1428h245l-101 -571h119l560 571h308z" />
    <glyph glyph-name="L" unicode="L" horiz-adv-x="940" 
d="M386 219h467l-39 -219h-715l252 1428h245z" />
    <glyph glyph-name="M" unicode="M" horiz-adv-x="1901" 
d="M1472 1428h347l-140 -1428h-242l103 1119l-599 -1119h-155l-205 1125l-294 -1125h-246l367 1428h340l186 -996z" />
    <glyph glyph-name="N" unicode="N" horiz-adv-x="1590" 
d="M1319 1428h245l-252 -1428h-272l-505 1087l-192 -1087h-244l252 1428h270l508 -1081z" />
    <glyph glyph-name="O" unicode="O" horiz-adv-x="1624" 
d="M736 -20q-280 0 -449.5 159.5t-169.5 432.5q0 168 60 325.5t166.5 280t268 196.5t351.5 74q279 0 449 -159t170 -431q0 -134 -37.5 -263t-111.5 -240t-174.5 -195t-235.5 -132t-287 -48zM746 209q106 0 201 35.5t165.5 97t122 142t78 173t26.5 186.5q0 178 -106 277.5
t-280 99.5q-131 0 -244.5 -54.5t-188.5 -144t-118 -203t-43 -232.5q0 -178 106.5 -277.5t280.5 -99.5z" />
    <glyph glyph-name="P" unicode="P" horiz-adv-x="1271" 
d="M863 1428q208 0 316.5 -111t108.5 -293q0 -81 -20.5 -153.5t-64 -135t-106.5 -108t-154 -71t-201 -25.5h-304l-94 -531h-245l252 1428h512zM724 740q93 0 159.5 21.5t102.5 61t51.5 85t15.5 101.5q0 98 -55 155t-173 57h-266l-85 -481h250z" />
    <glyph glyph-name="Q" unicode="Q" horiz-adv-x="1652" 
d="M1595 857q0 -192 -76.5 -368t-216.5 -301l182 -253l-218 -77l-151 205q-171 -83 -373 -83q-283 0 -454.5 160t-171.5 433q0 168 60.5 325.5t168.5 279.5t270.5 196t352.5 74q282 0 454.5 -159.5t172.5 -431.5zM358 580q0 -181 107.5 -281.5t283.5 -100.5q108 0 205 36
t168 99t123.5 144.5t79 175.5t26.5 190q0 178 -107 277.5t-284 99.5q-134 0 -249.5 -55t-191 -145t-118.5 -204.5t-43 -235.5z" />
    <glyph glyph-name="R" unicode="R" horiz-adv-x="1281" 
d="M1228 1087q0 -74 -21.5 -143.5t-64.5 -132.5t-117.5 -108t-171.5 -60l295 -643h-271l-270 636h-150l-112 -636h-246l252 1428h490q194 0 290.5 -93t96.5 -248zM560 1220l-75 -422h209q68 0 122.5 18.5t86.5 46t53 63t29 67t8 61.5q0 166 -209 166h-224z" />
    <glyph glyph-name="S" unicode="S" horiz-adv-x="1262" 
d="M594 -20q-155 0 -276.5 48t-192 141t-71.5 217l259 44q5 -114 84 -179.5t212 -65.5q130 0 212.5 61t82.5 158q0 43 -16.5 77.5t-41 56.5t-66.5 42t-77.5 32t-90.5 29q-9 3 -14 4q-49 15 -82 26t-77 29.5t-73 37.5t-61 47t-50.5 60t-30.5 76t-12 95q0 126 69.5 225
t190 153t269.5 54q100 0 189 -22t162 -65.5t117 -116.5t48 -166l-243 -45q-4 107 -77 158.5t-187 51.5q-124 0 -207.5 -59t-83.5 -146q0 -25 5 -46t17.5 -39t24 -31t35 -26t39 -21t47.5 -18.5t49.5 -16t55.5 -16.5q53 -15 87.5 -26t83.5 -31t81.5 -39.5t68 -50t56.5 -65
t35 -82t14 -102.5q0 -207 -158.5 -327.5t-405.5 -120.5z" />
    <glyph glyph-name="T" unicode="T" horiz-adv-x="1018" 
d="M1146 1428l-39 -218h-351l-214 -1210h-243l213 1210h-353l39 218h948z" />
    <glyph glyph-name="U" unicode="U" horiz-adv-x="1405" 
d="M623 -20q-216 0 -347 106.5t-131 301.5q0 49 11 109l165 931h245l-160 -914q-9 -50 -9 -91q0 -114 62.5 -168.5t170.5 -54.5q138 0 240 84t131 246l159 898h246l-167 -948q-30 -165 -121 -279.5t-217 -167.5t-278 -53z" />
    <glyph glyph-name="V" unicode="V" horiz-adv-x="1376" 
d="M1242 1428h266l-779 -1428h-265l-271 1428h253l199 -1136z" />
    <glyph glyph-name="W" unicode="W" horiz-adv-x="2090" 
d="M343 0l-138 1428h250l105 -1123l536 1123h212l133 -1123l508 1123h260l-640 -1428h-308l-131 979l-480 -979h-307z" />
    <glyph glyph-name="X" unicode="X" horiz-adv-x="1462" 
d="M-62 0l691 745l-413 683h293l292 -506l475 506h304l-660 -683l422 -745h-305l-289 549l-490 -549h-320z" />
    <glyph glyph-name="Y" unicode="Y" horiz-adv-x="1221" 
d="M1367 1428l-606 -752l-119 -676h-248l122 683l-338 745h264l226 -529l414 529h285z" />
    <glyph glyph-name="Z" unicode="Z" horiz-adv-x="1209" 
d="M1274 1428l-32 -197l-909 -1012h746l-38 -219h-1049l33 196l912 1014h-730l39 218h1028z" />
    <glyph glyph-name="bracketleft" unicode="[" horiz-adv-x="671" 
d="M-30 -512l361 2048h483l-31 -178h-263l-299 -1692h263l-32 -178h-482z" />
    <glyph glyph-name="backslash" unicode="\" horiz-adv-x="1513" 
d="M1147 -395l-995 1931h237l995 -1931h-237z" />
    <glyph glyph-name="bracketright" unicode="]" horiz-adv-x="670" 
d="M-142 -512l32 178h264l298 1692h-263l31 178h483l-362 -2048h-483z" />
    <glyph glyph-name="asciicircum" unicode="^" horiz-adv-x="1392" 
d="M1287 302h-207l-253 913l-575 -913h-218l711 1131h229z" />
    <glyph glyph-name="underscore" unicode="_" horiz-adv-x="1317" 
d="M20 -209l37 209h1024l-37 -209h-1024z" />
    <glyph glyph-name="grave" unicode="`" horiz-adv-x="470" 
d="M395 1210l-178 264l140 90l196 -354h-158z" />
    <glyph glyph-name="a" unicode="a" horiz-adv-x="1265" 
d="M966 1008h236l-178 -1008h-215l13 153q-57 -84 -151 -130t-201 -46q-181 0 -295.5 115t-114.5 313q0 92 26 182t75.5 169t117 140t157 96t187.5 35q115 0 199 -49.5t116 -133.5zM537 177q80 0 150.5 37t116.5 95.5t72.5 127.5t26.5 135q0 112 -65 184.5t-177 72.5
q-106 0 -190.5 -61t-128 -152t-43.5 -188q0 -117 65 -184t173 -67z" />
    <glyph glyph-name="b" unicode="b" horiz-adv-x="1264" 
d="M793 1027q180 0 294.5 -114.5t114.5 -308.5q0 -93 -25.5 -184.5t-75.5 -171t-117 -140.5t-156.5 -96t-188.5 -35q-117 0 -202 51.5t-116 139.5l-34 -168h-227l271 1536h236l-114 -665q58 75 147.5 115.5t192.5 40.5zM593 177q83 0 154.5 36.5t118 95.5t73 130.5
t26.5 143.5q0 114 -64.5 180t-170.5 66t-193.5 -63t-132.5 -155.5t-45 -187.5q0 -111 65 -178.5t169 -67.5z" />
    <glyph glyph-name="c" unicode="c" horiz-adv-x="1126" 
d="M513 -19q-207 0 -331 117t-124 313q0 117 43 227t119.5 197t193 139.5t252.5 52.5q188 0 304 -96t126 -265l-219 -12q-22 184 -216 184q-83 0 -154.5 -39t-117.5 -101.5t-71.5 -138t-25.5 -151.5q0 -109 60 -172.5t162 -63.5q101 0 183 52.5t127 147.5l216 -43
q-70 -166 -211.5 -257t-315.5 -91z" />
    <glyph glyph-name="d" unicode="d" horiz-adv-x="1263" 
d="M1059 1536h236l-271 -1536h-225l18 146q-58 -81 -150.5 -125t-196.5 -44q-181 0 -295.5 115t-114.5 310q0 117 41.5 229.5t113.5 200t179 141.5t230 54q114 0 198.5 -49.5t116.5 -134.5zM541 177q106 0 190.5 62t127 150.5t42.5 180.5q0 118 -67.5 188.5t-175.5 70.5
q-105 0 -189 -60t-127 -149.5t-43 -185.5q0 -120 67 -188.5t175 -68.5z" />
    <glyph glyph-name="e" unicode="e" horiz-adv-x="1138" 
d="M661 1028q194 0 307.5 -99.5t113.5 -291.5q0 -63 -11 -124l-12 -52h-769q-3 -33 -3 -67q0 -110 63 -167t166 -57q87 0 162.5 43.5t124.5 119.5l211 -50q-76 -144 -209 -223.5t-290 -79.5q-211 0 -332.5 110.5t-121.5 307.5q0 97 25 189t76 172t121.5 140t168 94.5
t209.5 34.5zM659 859q-120 0 -203.5 -64t-126.5 -172h529q3 23 3 42q0 96 -54.5 145t-147.5 49z" />
    <glyph glyph-name="f" unicode="f" horiz-adv-x="679" 
d="M742 1370q-63 0 -110 -40.5t-59 -111.5l-37 -210h224l-33 -183h-223l-146 -825h-235l145 825h-196l33 183h195l39 219q59 329 344 329q80 0 161 -28l-15 -169q-43 11 -87 11z" />
    <glyph glyph-name="g" unicode="g" horiz-adv-x="1238" 
d="M948 1008h227l-167 -951q-48 -271 -202.5 -402.5t-391.5 -131.5q-203 0 -317 84t-147 235l204 72q25 -105 85.5 -153.5t167.5 -48.5q148 0 242 91.5t121 253.5l21 127q-55 -69 -146 -110.5t-191 -41.5q-171 0 -282 113.5t-111 297.5q0 155 72.5 289.5t197.5 214.5t270 80
q114 0 198 -51t116 -133zM525 227q140 0 248 111.5t108 256.5q0 105 -65 173.5t-170 68.5q-144 0 -250 -113t-106 -257q0 -106 65.5 -173t169.5 -67z" />
    <glyph glyph-name="h" unicode="h" horiz-adv-x="1157" 
d="M776 1027q133 0 210.5 -72t77.5 -199q0 -26 -8 -86l-120 -670h-235l114 646q5 33 5 54q0 70 -38.5 102.5t-103.5 32.5q-56 0 -108 -20.5t-98 -71t-68 -125.5l-109 -618h-235l271 1536h236l-117 -662q132 153 326 153z" />
    <glyph glyph-name="i" unicode="i" horiz-adv-x="551" 
d="M413 1213q-62 0 -101 44t-33 106q6 61 55 104.5t112 43.5q60 0 99.5 -43.5t32.5 -104.5q-7 -62 -56 -106t-109 -44zM61 0l179 1013h251l-180 -1013h-250z" />
    <glyph glyph-name="j" unicode="j" horiz-adv-x="554" 
d="M414 1213q-62 0 -101 44t-33 106q6 61 55 104.5t112 43.5q60 0 99.5 -43.5t32.5 -104.5q-7 -62 -56 -106t-109 -44zM-229 -475l32 200q68 0 111.5 15t73 55t47 94.5t33.5 147.5l172 976h253l-175 -994q-47 -266 -171.5 -380t-375.5 -114z" />
    <glyph glyph-name="k" unicode="k" horiz-adv-x="1093" 
d="M1146 1008l-491 -470l350 -538h-280l-282 452h-64l-80 -452h-239l271 1536h239l-161 -914h72l386 386h279z" />
    <glyph glyph-name="l" unicode="l" horiz-adv-x="538" 
d="M60 0l271 1536h239l-271 -1536h-239z" />
    <glyph glyph-name="m" unicode="m" horiz-adv-x="1720" 
d="M1341 1027q131 0 209.5 -67.5t78.5 -187.5q0 -30 -7 -74l-123 -698h-236l114 649q5 33 5 55q0 131 -137 131q-79 0 -145 -56t-89 -161l-110 -618h-239l113 645q5 35 5 56q0 134 -138 134q-83 0 -152 -62t-88 -178l-106 -595h-235l178 1008h236l-24 -136q126 155 301 155
q102 0 172.5 -43.5t95.5 -123.5q62 78 145 122.5t176 44.5z" />
    <glyph glyph-name="n" unicode="n" horiz-adv-x="1158" 
d="M777 1027q134 0 211 -72t77 -199q0 -26 -8 -86l-120 -670h-237l116 646q5 33 5 53q0 136 -151 136q-86 0 -160.5 -56.5t-104.5 -167.5l-109 -611h-235l178 1008h236l-24 -133q132 152 326 152z" />
    <glyph glyph-name="o" unicode="o" horiz-adv-x="1202" 
d="M523 -20q-209 0 -336 114.5t-127 312.5q0 121 42.5 232.5t120 198t195.5 138t259 51.5q211 0 337.5 -114t126.5 -311q0 -122 -43 -233.5t-121 -198.5t-196 -138.5t-258 -51.5zM529 171q85 0 158.5 38t120 99t73 135t26.5 148q0 113 -65 180t-175 67q-85 0 -157 -38.5
t-118 -99.5t-71.5 -134.5t-25.5 -147.5q0 -115 63 -181t171 -66z" />
    <glyph glyph-name="p" unicode="p" horiz-adv-x="1264" 
d="M791 1027q181 0 295 -113.5t114 -307.5q0 -118 -40.5 -230.5t-112 -201.5t-178.5 -143t-231 -54q-113 0 -198 50t-118 134l-113 -658h-237l266 1505h225l-19 -148q58 80 150.5 123.5t196.5 43.5zM598 177q81 0 151.5 35.5t116 93.5t71.5 129t26 143q0 117 -66 183.5
t-172 66.5q-80 0 -150.5 -36t-116.5 -93.5t-72.5 -128t-26.5 -140.5q0 -115 66 -184t173 -69z" />
    <glyph glyph-name="q" unicode="q" horiz-adv-x="1264" 
d="M976 1008h227l-265 -1505h-237l109 630q-59 -74 -149 -115t-189 -41q-180 0 -295 114t-115 309q0 119 41 231.5t113 200.5t179 141.5t231 53.5q115 0 199.5 -51t115.5 -137zM536 177q108 0 194 62t129.5 151.5t43.5 182.5q0 115 -66.5 185t-173.5 70t-191.5 -60
t-127.5 -150.5t-43 -190.5q0 -118 64.5 -184t170.5 -66z" />
    <glyph glyph-name="r" unicode="r" horiz-adv-x="711" 
d="M440 842q51 75 146.5 125.5t199.5 51.5l-43 -230q-146 0 -239 -74t-119 -226l-86 -489h-238l178 1008h229z" />
    <glyph glyph-name="s" unicode="s" horiz-adv-x="946" 
d="M401 -20q-176 0 -275.5 76t-101.5 212l219 42q-3 -79 44 -122.5t127 -43.5t135 42t55 117q0 26 -10 46t-24 33t-44 25t-54 19.5t-71 19.5q-49 13 -83 25t-72.5 33t-62 46t-39 63.5t-15.5 86.5q0 103 56 178t147 111.5t205 36.5q101 0 179.5 -27.5t129 -90.5t51.5 -154
l-199 -31q1 73 -43.5 107.5t-113.5 34.5q-79 0 -133.5 -40t-54.5 -108q0 -36 27 -60t52.5 -33t88.5 -25q17 -5 26 -7q51 -13 88.5 -26t77.5 -35t65 -49t41.5 -68t16.5 -91q0 -110 -58.5 -188.5t-155.5 -116.5t-221 -38z" />
    <glyph glyph-name="t" unicode="t" horiz-adv-x="733" 
d="M421 0q-119 0 -185.5 62t-66.5 173q0 34 7 70l93 520h-203l33 183h61q73 0 124.5 42.5t66.5 120.5l28 167h218l-58 -330h218l-32 -183h-219l-90 -511q-3 -16 -3 -41q0 -91 99 -91h100l-33 -182h-158z" />
    <glyph glyph-name="u" unicode="u" horiz-adv-x="1158" 
d="M860 1008h236l-178 -1008h-223l19 144q-63 -77 -148.5 -120.5t-183.5 -43.5q-136 0 -213 72t-77 201q0 35 8 85l119 670h236l-111 -624q-6 -36 -6 -62q0 -73 39.5 -107.5t105.5 -34.5q102 0 177 63.5t95 175.5h2z" />
    <glyph glyph-name="v" unicode="v" horiz-adv-x="1051" 
d="M879 1008h256l-598 -1008h-205l-239 1008h244l140 -739z" />
    <glyph glyph-name="w" unicode="w" horiz-adv-x="1662" 
d="M1489 1008h249l-528 -1009h-218l-124 713l-378 -713h-220l-167 1009h242l101 -705l378 705h182l128 -706z" />
    <glyph glyph-name="x" unicode="x" horiz-adv-x="1116" 
d="M-81 0l495 505l-310 503h287l188 -347l317 347h299l-496 -504l311 -504h-285l-188 345l-317 -345h-301z" />
    <glyph glyph-name="y" unicode="y" horiz-adv-x="1044" 
d="M878 1008h248l-866 -1482h-246l310 518l-229 964h253l133 -712z" />
    <glyph glyph-name="z" unicode="z" horiz-adv-x="909" 
d="M953 1008l-620 -823h463l-32 -185h-821l617 823h-435l33 185h795z" />
    <glyph glyph-name="braceleft" unicode="{" horiz-adv-x="648" 
d="M313 -497q-131 0 -198.5 78.5t-47.5 192.5l73 415q10 60 13 94.5t0.5 63t-17.5 45.5t-36 30.5t-60 28.5l11 142q72 25 109 52.5t60.5 78t40.5 144.5l72 413q20 115 105.5 185t217.5 70h120l-31 -175h-57q-49 0 -86 -36t-47 -97l-68 -384q-13 -69 -27 -111.5t-44 -87.5
t-81.5 -76t-130.5 -54q86 -28 128.5 -78.5t46 -114.5t-9.5 -145l-68 -387q-12 -63 4 -87.5t70 -24.5h74l-31 -175h-105z" />
    <glyph glyph-name="bar" unicode="|" horiz-adv-x="609" 
d="M83 -307l324 1843h159l-325 -1843h-158z" />
    <glyph glyph-name="braceright" unicode="}" horiz-adv-x="648" 
d="M-123 -497l30 175h57q111 0 133 130l68 387q10 55 20 90t30 75.5t48.5 67t75 52t109.5 43.5q-86 28 -128.5 78t-45.5 114.5t9 146.5l68 383q11 61 -7.5 88.5t-67.5 27.5h-73l32 175h104q131 0 199 -78.5t48 -193.5l-74 -413q-13 -75 -15.5 -114t9 -69.5t34.5 -46
t71 -34.5l-10 -143q-73 -25 -109.5 -52t-59.5 -77t-40 -144l-73 -415q-20 -114 -106 -183.5t-217 -69.5h-119z" />
    <glyph glyph-name="asciitilde" unicode="~" horiz-adv-x="1371" 
d="M899 328q-28 0 -55 5t-47.5 11.5t-43.5 19.5t-36.5 22t-33 26.5t-27.5 25t-25 25.5t-20 21q-62 65 -115 65q-69 0 -107.5 -59t-40.5 -144h-181q-6 172 85 278t249 106q85 0 144 -36t116 -111q21 -26 34 -39.5t37 -26.5t52 -13q63 0 105 55.5t38 146.5h179
q13 -161 -75 -269.5t-232 -108.5z" />
    <glyph glyph-name="exclamdown" unicode="&#xa1;" horiz-adv-x="641" 
d="M375 734q-67 0 -106.5 49t-28.5 119q11 54 56 92t100 38q67 0 107 -49t29 -117q-11 -56 -56 -94t-101 -38zM29 -421l199 992h204l-152 -992h-251z" />
    <glyph glyph-name="cent" unicode="&#xa2;" horiz-adv-x="1142" 
d="M613 432q75 0 144.5 39t120.5 104l154 -163q-161 -172 -379 -189l-39 -223h-149l41 231q-186 36 -280.5 188t-55.5 369q37 212 184 356.5t344 169.5l39 222h149l-39 -223q197 -29 302 -198l-188 -135q-59 128 -197 128q-126 0 -230.5 -100t-131.5 -256
q-26 -142 35.5 -231t175.5 -89z" />
    <glyph glyph-name="sterling" unicode="&#xa3;" horiz-adv-x="1312" 
d="M47 0l27 154l54 12q48 9 81 42t41 81l55 313h-152l32 184h152l34 186q37 215 188.5 349.5t358.5 134.5q98 0 178 -33t131 -106t51 -175q0 -57 -24 -143l-224 -32q1 3 5.5 14.5t5.5 15t5 13.5t5 14t4 13t4 14t3 13.5t2.5 15t1 14t0.5 15.5q0 66 -43.5 100.5t-114.5 34.5
q-119 0 -202.5 -77.5t-108.5 -212.5l-29 -168h300l-32 -184h-300l-68 -386h642l-39 -216h-1024z" />
    <glyph glyph-name="currency" unicode="&#xa4;" horiz-adv-x="1371" 
d="M272 237l-115 140l131 113q-43 84 -43 185q0 190 130 337l-87 96l152 140l90 -105q125 77 265 77q151 0 253 -85l130 112l117 -135l-129 -114q42 -86 42 -184q0 -192 -130 -341l86 -96l-150 -140l-90 105q-122 -75 -265 -75q-150 0 -255 84zM675 454q77 0 143 31
t108.5 81t66 110.5t23.5 121.5q0 99 -60.5 165.5t-176.5 66.5q-78 0 -144 -31.5t-108.5 -81.5t-66 -110.5t-23.5 -121.5q0 -99 61 -165t177 -66z" />
    <glyph glyph-name="yen" unicode="&#xa5;" horiz-adv-x="1414" 
d="M487 0l40 223h-364l27 154h364l34 199h-363l27 155h335l-327 702h282l229 -521l419 521h294l-575 -702h326l-27 -155h-361l-34 -199h361l-28 -154h-360l-40 -223h-259z" />
    <glyph glyph-name="brokenbar" unicode="&#xa6;" horiz-adv-x="609" 
d="M277 799l130 737h159l-131 -737h-158zM83 -307l129 737h158l-129 -737h-158z" />
    <glyph glyph-name="section" unicode="&#xa7;" horiz-adv-x="1293" 
d="M739 846q78 -21 128.5 -37.5t115 -50.5t98.5 -74t52.5 -104.5t4.5 -145.5q-28 -154 -140 -248q79 -95 53 -243q-14 -78 -50.5 -141.5t-88.5 -106.5t-118.5 -72t-139 -42t-151.5 -13q-214 0 -345.5 102.5t-132.5 276.5l225 36q-1 -113 70.5 -173.5t189.5 -60.5
q125 0 215.5 56t108.5 167q8 47 -6 81.5t-62.5 62t-79.5 39.5t-111 38q-22 7 -33 11q-72 20 -121.5 37t-105.5 49t-87 70t-46 97.5t-2 133.5q27 154 149 243q-90 92 -63 246q20 118 95.5 201.5t181 123t230.5 39.5q128 0 228.5 -35.5t166 -115t69.5 -194.5l-212 -38
q-4 105 -68 153.5t-172 48.5q-113 0 -200.5 -54t-106.5 -160q-5 -33 4.5 -59.5t29 -45t52.5 -34.5t67 -28.5t79 -26.5q19 -6 29 -9zM393 559q-5 -28 -0.5 -50.5t22 -41t34 -31.5t52 -27t58.5 -22t69 -23q5 -2 8 -3t8 -2.5t9 -2.5q111 -30 167 -52q83 53 101 157q6 38 -5 68
t-32 51t-58 40t-72 31.5t-86 29.5q-26 8 -40 13q-70 20 -104 31q-111 -51 -131 -166z" />
    <glyph glyph-name="dieresis" unicode="&#xa8;" horiz-adv-x="889" 
d="M390 1213q-62 0 -102 44t-33 106q7 61 56 104.5t111 43.5q61 0 99.5 -43.5t32.5 -104.5q-6 -62 -55 -106t-109 -44zM802 1213q-62 0 -102 44t-33 106q7 61 56 104.5t111 43.5q61 0 99.5 -43.5t32.5 -104.5q-6 -62 -55 -106t-109 -44z" />
    <glyph glyph-name="copyright" unicode="&#xa9;" horiz-adv-x="1733" 
d="M903 -20q-100 0 -196 26.5t-177 74.5t-149 116t-116 149t-74.5 177t-26.5 196q0 150 58.5 287t157.5 236t236 158t287 59q201 0 371.5 -99.5t270 -270t99.5 -370.5q0 -150 -59 -287t-158 -236t-236.5 -157.5t-287.5 -58.5zM903 117q166 0 304.5 80t218.5 218.5t80 303.5
t-80 304t-218.5 219t-304.5 80q-165 0 -303 -80t-218 -219t-80 -304t80 -303.5t218 -218.5t303 -80zM906 300q-172 0 -294.5 122t-122.5 295t122 294.5t295 121.5q95 0 180.5 -40.5t142.5 -111.5l-116 -93q-77 100 -207 100q-112 0 -189 -77.5t-77 -193.5q0 -115 77 -192.5
t189 -77.5q130 0 207 99l116 -93q-57 -72 -142.5 -112.5t-180.5 -40.5z" />
    <glyph glyph-name="ordfeminine" unicode="&#xaa;" horiz-adv-x="977" 
d="M827 1536h146l-109 -614h-146l15 85q-91 -98 -222 -98q-118 0 -193.5 78t-75.5 197q0 92 46.5 175.5t129 136t178.5 52.5q154 0 213 -114zM540 1037q92 0 163.5 69.5t71.5 160.5q0 70 -43 111t-110 41q-103 0 -170 -71.5t-67 -158.5q0 -73 43 -112.5t112 -39.5z" />
    <glyph glyph-name="guillemotleft" unicode="&#xab;" horiz-adv-x="1055" 
d="M315 260l-248 376l373 377h211l-381 -377l242 -376h-197zM752 260l-248 376l373 377h212l-381 -377l242 -376h-198z" />
    <glyph glyph-name="logicalnot" unicode="&#xac;" horiz-adv-x="1702" 
d="M1297 285v524h-1112v204h1315v-728h-203z" />
    <glyph glyph-name="uni00AD" unicode="&#xad;" horiz-adv-x="1012" 
d="M136 440l36 212h717l-36 -212h-717z" />
    <glyph glyph-name="registered" unicode="&#xae;" horiz-adv-x="1733" 
d="M903 1459q201 0 371.5 -99.5t270 -270t99.5 -370.5q0 -150 -59 -287t-158 -236t-236.5 -157.5t-287.5 -58.5q-100 0 -196 26.5t-177 74.5t-149 116t-116 149t-74.5 177t-26.5 196q0 150 58.5 287t157.5 236t236 158t287 59zM903 117q166 0 304.5 80t218.5 218.5t80 303.5
t-80 304t-218.5 219t-304.5 80q-165 0 -303 -80t-218 -219t-80 -304t80 -303.5t218 -218.5t303 -80zM1213 887q0 -69 -35.5 -124.5t-95.5 -83.5l157 -362h-154l-138 339h-147v-339h-139v805h317q98 0 166.5 -68.5t68.5 -166.5zM800 995v-221h159q50 0 83.5 31.5t33.5 78.5
q0 48 -33 79.5t-84 31.5h-159z" />
    <glyph glyph-name="macron" unicode="&#xaf;" horiz-adv-x="951" 
d="M276 1237l26 150h659l-27 -150h-658z" />
    <glyph glyph-name="degree" unicode="&#xb0;" horiz-adv-x="920" 
d="M573 853q-125 0 -212.5 87.5t-87.5 212.5t87.5 212.5t212.5 87.5t213 -87.5t88 -212.5t-88 -212.5t-213 -87.5zM573 993q67 0 113 46.5t46 113.5t-46 113t-113 46t-112.5 -46t-45.5 -113q0 -68 45.5 -114t112.5 -46z" />
    <glyph glyph-name="plusminus" unicode="&#xb1;" horiz-adv-x="1299" 
d="M556 358v392h-391v193h391v392h194v-392h392v-193h-392v-392h-194zM155 1v194h978v-194h-978z" />
    <glyph glyph-name="acute" unicode="&#xb4;" horiz-adv-x="469" 
d="M157 1210l321 354l110 -90l-273 -264h-158z" />
    <glyph glyph-name="uni00B5" unicode="&#xb5;" horiz-adv-x="1329" 
d="M1032 1013h217l-179 -1013h-218l22 126q-67 -69 -151 -107.5t-173 -38.5q-118 0 -208 63l-98 -555h-198l269 1525h219l-108 -608q-17 -101 36 -167t149 -66q106 0 196.5 68.5t116.5 164.5z" />
    <glyph glyph-name="paragraph" unicode="&#xb6;" horiz-adv-x="1173" 
d="M352 -307l186 1054h-39q-172 0 -256 95t-54 267q28 159 135 241.5t278 82.5h186l-306 -1740h-130zM673 -307l306 1740h132l-307 -1740h-131z" />
    <glyph glyph-name="periodcentered" unicode="&#xb7;" horiz-adv-x="580" 
d="M327 624q-52 0 -84.5 38.5t-22.5 92.5q8 39 41.5 67t73.5 28q50 0 82 -39.5t23 -91.5q-7 -40 -40.5 -67.5t-72.5 -27.5z" />
    <glyph glyph-name="cedilla" unicode="&#xb8;" horiz-adv-x="583" 
d="M104 -532q-81 0 -139 41t-74 103l121 42q12 -31 42.5 -49.5t65.5 -18.5q42 0 77 28t43 73q9 46 -16.5 72t-71.5 26q-45 0 -81 -27l-85 57l157 222h123l-118 -165q34 6 49 6q86 0 132 -53.5t31 -137.5q-16 -92 -90 -155.5t-166 -63.5z" />
    <glyph glyph-name="ordmasculine" unicode="&#xba;" horiz-adv-x="902" 
d="M537 909q-130 0 -214 80t-84 201q0 141 112 249.5t266 108.5q132 0 216 -80t84 -201q0 -95 -53 -178t-140.5 -131.5t-186.5 -48.5zM539 1037q92 0 163 70.5t71 158.5q0 66 -45 109.5t-113 43.5q-100 0 -166 -73.5t-66 -157.5q0 -64 44.5 -107.5t111.5 -43.5z" />
    <glyph glyph-name="guillemotright" unicode="&#xbb;" horiz-adv-x="1052" 
d="M10 260l381 376l-242 377h196l249 -377l-375 -376h-209zM446 260l381 376l-241 377h197l249 -377l-375 -376h-211z" />
    <glyph glyph-name="onequarter" unicode="&#xbc;" horiz-adv-x="1730" 
d="M1308 1536h171l-1137 -1536h-172zM272 614l138 774l-227 -154l21 147l240 155h143l-163 -922h-152zM1621 922l-108 -611h99l-21 -116h-99l-34 -195h-147l34 195h-427l20 128l483 599h200zM1073 311h293l85 485z" />
    <glyph glyph-name="onehalf" unicode="&#xbd;" horiz-adv-x="1774" 
d="M1307 1536h170l-1136 -1536h-173zM270 614l139 775l-229 -155l26 147l236 155h144l-163 -922h-153zM1693 646q-19 -123 -142.5 -249t-386.5 -276h458l-22 -121h-628l18 148q167 108 277 189t168.5 141t82.5 101t31 85q25 141 -105 141q-77 0 -127.5 -50t-62.5 -121
l-154 16q22 128 118.5 207t225.5 79q131 0 201 -80.5t48 -209.5z" />
    <glyph glyph-name="threequarters" unicode="&#xbe;" horiz-adv-x="1934" 
d="M640 1116q52 -32 81 -84t31.5 -108.5t-19.5 -114.5t-64 -103.5t-109.5 -74.5t-149.5 -29q-134 0 -213 81.5t-58 197.5l154 -17q-11 -65 19.5 -99t88.5 -34q101 0 162 78q51 66 39 136q-12 71 -88 91q-23 6 -51 6h-57l21 119h32q89 0 143 75q44 61 33 122q-11 60 -72 66
q-7 1 -14 1q-60 0 -104.5 -38t-56.5 -105l-150 19q20 113 104 180t197 67q70 0 123 -24t79.5 -61.5t34.5 -86t-5.5 -95.5t-47 -91.5t-83.5 -73.5zM1514 1536h171l-1137 -1536h-172zM1827 922l-108 -611h99l-21 -116h-99l-34 -195h-147l34 195h-427l20 128l483 599h200z
M1279 311h293l85 485z" />
    <glyph glyph-name="questiondown" unicode="&#xbf;" horiz-adv-x="1039" 
d="M563 737q-66 0 -105.5 49t-27.5 117q10 55 54.5 93t98.5 38q68 0 108 -49t27 -118q-10 -54 -55.5 -92t-99.5 -38zM367 -440q-202 0 -311 124t-74 327q47 265 293 367q116 35 134 126l13 81h205l-21 -123q-17 -94 -68 -145t-158 -105q-151 -57 -183 -230
q-18 -104 29.5 -159.5t141.5 -55.5q105 0 184.5 69.5t99.5 177.5q6 38 5 76l212 -42q-2 -43 -9 -89q-32 -178 -168 -288.5t-325 -110.5z" />
    <glyph glyph-name="Agrave" unicode="&#xc0;" horiz-adv-x="1412" 
d="M973 1566h-158l-179 265l141 89zM1042 0l-56 316h-621l-168 -316h-256l777 1428h298l276 -1428h-250zM476 525h473l-119 667z" />
    <glyph glyph-name="Aacute" unicode="&#xc1;" horiz-adv-x="1412" 
d="M1242 1831l-272 -265h-158l321 354zM1042 0l-56 316h-621l-168 -316h-256l777 1428h298l276 -1428h-250zM476 525h473l-119 667z" />
    <glyph glyph-name="Acircumflex" unicode="&#xc2;" horiz-adv-x="1412" 
d="M928 1771l-179 -205h-157l274 298h158l170 -298h-159zM1042 0l-56 316h-621l-168 -316h-256l777 1428h298l276 -1428h-250zM476 525h473l-119 667z" />
    <glyph glyph-name="Atilde" unicode="&#xc3;" horiz-adv-x="1412" 
d="M797 1726q-43 0 -75 -42.5t-44 -109.5h-132q23 124 96.5 202.5t173.5 78.5q119 0 173 -114q23 -52 73 -52q44 0 74.5 40.5t42.5 109.5h133q-23 -123 -95 -201.5t-175 -78.5q-120 0 -174 115q-22 52 -71 52zM718 1428h298l276 -1428h-250l-56 316h-621l-168 -316h-256z
M476 525h473l-119 667z" />
    <glyph glyph-name="Adieresis" unicode="&#xc4;" horiz-adv-x="1412" 
d="M694 1566q-53 0 -85.5 38.5t-23.5 92.5q10 54 55.5 91.5t99.5 37.5q53 0 85 -38t22 -91q-9 -54 -54.5 -92.5t-98.5 -38.5zM1094 1566q-54 0 -85.5 38.5t-22.5 92.5q10 54 55 91.5t99 37.5t85 -37.5t21 -91.5q-9 -54 -54 -92.5t-98 -38.5zM1042 0l-56 316h-621l-168 -316
h-256l777 1428h298l276 -1428h-250zM476 525h473l-119 667z" />
    <glyph glyph-name="Aring" unicode="&#xc5;" horiz-adv-x="1412" 
d="M904 1566q-89 0 -144.5 53.5t-58.5 138.5q-4 105 73 185.5t190 80.5q90 0 143.5 -53t55.5 -137q4 -105 -72 -186.5t-187 -81.5zM953 1919q-60 0 -100 -44.5t-40 -100.5q0 -45 27 -71.5t75 -26.5q62 0 101.5 41.5t39.5 97.5q0 45 -28 74.5t-75 29.5zM1042 0l-56 316h-621
l-168 -316h-256l777 1428h298l276 -1428h-250zM476 525h473l-119 667z" />
    <glyph glyph-name="AE" unicode="&#xc6;" horiz-adv-x="1825" 
d="M-59 0l757 1433h1181l-41 -231h-578l-65 -371h501l-41 -230h-501l-65 -370h577l-40 -231h-838l56 311h-469l-158 -311h-276zM487 531h396l118 672h-172z" />
    <glyph glyph-name="Ccedilla" unicode="&#xc7;" horiz-adv-x="1530" 
d="M746 209q150 0 280 74t207 202l217 -102q-108 -183 -286.5 -288t-389.5 -114l-78 -109q34 6 49 6q86 0 132 -53.5t31 -137.5q-16 -92 -90 -155.5t-166 -63.5q-81 0 -139 41t-74 103l121 42q12 -31 42.5 -49.5t65.5 -18.5q42 0 77 28t43 73q9 46 -16.5 72t-71.5 26
q-45 0 -81 -27l-85 57l119 169q-246 24 -391 180t-145 408q0 168 60 325.5t166.5 280t268 196.5t351.5 74q232 0 391 -112t207 -306l-239 -71q-32 126 -129.5 193.5t-239.5 67.5q-131 0 -244.5 -54.5t-188.5 -143.5t-118 -202.5t-43 -232.5q0 -178 106.5 -278t280.5 -100z
" />
    <glyph glyph-name="Egrave" unicode="&#xc8;" horiz-adv-x="1099" 
d="M861 1566h-158l-179 265l141 89zM1113 1210h-552l-68 -388h488l-38 -216h-488l-68 -387h551l-38 -219h-801l252 1428h801z" />
    <glyph glyph-name="Eacute" unicode="&#xc9;" horiz-adv-x="1099" 
d="M1130 1831l-272 -265h-158l321 354zM1113 1210h-552l-68 -388h488l-38 -216h-488l-68 -387h551l-38 -219h-801l252 1428h801z" />
    <glyph glyph-name="Ecircumflex" unicode="&#xca;" horiz-adv-x="1099" 
d="M816 1771l-179 -205h-157l274 298h158l170 -298h-159zM1113 1210h-552l-68 -388h488l-38 -216h-488l-68 -387h551l-38 -219h-801l252 1428h801z" />
    <glyph glyph-name="Edieresis" unicode="&#xcb;" horiz-adv-x="1099" 
d="M582 1566q-53 0 -85.5 38.5t-23.5 92.5q10 54 55.5 91.5t99.5 37.5q53 0 85 -38t22 -91q-9 -54 -54.5 -92.5t-98.5 -38.5zM982 1566q-54 0 -85.5 38.5t-22.5 92.5q10 54 55 91.5t99 37.5t85 -37.5t21 -91.5q-9 -54 -54 -92.5t-98 -38.5zM1113 1210h-552l-68 -388h488
l-38 -216h-488l-68 -387h551l-38 -219h-801l252 1428h801z" />
    <glyph glyph-name="Igrave" unicode="&#xcc;" horiz-adv-x="623" 
d="M418 1566l-179 265l141 89l196 -354h-158zM99 0l252 1428h245l-252 -1428h-245z" />
    <glyph glyph-name="Iacute" unicode="&#xcd;" horiz-adv-x="623" 
d="M415 1566l321 354l109 -89l-272 -265h-158zM99 0l252 1428h245l-252 -1428h-245z" />
    <glyph glyph-name="Icircumflex" unicode="&#xce;" horiz-adv-x="623" 
d="M352 1566h-157l274 298h158l170 -298h-159l-107 205zM99 0l252 1428h245l-252 -1428h-245z" />
    <glyph glyph-name="Idieresis" unicode="&#xcf;" horiz-adv-x="623" 
d="M297 1566q-53 0 -85.5 38.5t-23.5 92.5q10 54 55.5 91.5t99.5 37.5q53 0 85 -38t22 -91q-9 -54 -54.5 -92.5t-98.5 -38.5zM697 1566q-54 0 -85.5 38.5t-22.5 92.5q10 54 55 91.5t99 37.5t85 -37.5t21 -91.5q-9 -54 -54 -92.5t-98 -38.5zM99 0l252 1428h245l-252 -1428
h-245z" />
    <glyph glyph-name="Eth" unicode="&#xd0;" horiz-adv-x="1448" 
d="M835 1428q278 0 423 -146.5t145 -399.5q0 -89 -14 -176.5t-44.5 -175.5t-75.5 -165.5t-111 -145t-146.5 -116t-186 -76t-226.5 -27.5h-500l112 636h-162l27 156h163l112 636h484zM611 219q95 0 176 28.5t138.5 78t101.5 113.5t70 139t38.5 149.5t12.5 149.5
q0 161 -85.5 247t-260.5 86h-244l-74 -418h254l-27 -156h-254l-74 -417h228z" />
    <glyph glyph-name="Ntilde" unicode="&#xd1;" horiz-adv-x="1590" 
d="M886 1726q-43 0 -75 -42.5t-44 -109.5h-132q23 124 96.5 202.5t173.5 78.5q119 0 173 -114q23 -52 73 -52q44 0 74.5 40.5t42.5 109.5h133q-23 -123 -95 -201.5t-175 -78.5q-120 0 -174 115q-22 52 -71 52zM1319 1428h245l-252 -1428h-272l-505 1087l-192 -1087h-244
l252 1428h270l508 -1081z" />
    <glyph glyph-name="Ograve" unicode="&#xd2;" horiz-adv-x="1624" 
d="M922 1566l-179 265l141 89l196 -354h-158zM736 -20q-280 0 -449.5 159.5t-169.5 432.5q0 168 60 325.5t166.5 280t268 196.5t351.5 74q279 0 449 -159t170 -431q0 -134 -37.5 -263t-111.5 -240t-174.5 -195t-235.5 -132t-287 -48zM746 209q106 0 201 35.5t165.5 97
t122 142t78 173t26.5 186.5q0 178 -106 277.5t-280 99.5q-131 0 -244.5 -54.5t-188.5 -144t-118 -203t-43 -232.5q0 -178 106.5 -277.5t280.5 -99.5z" />
    <glyph glyph-name="Oacute" unicode="&#xd3;" horiz-adv-x="1624" 
d="M919 1566l321 354l109 -89l-272 -265h-158zM736 -20q-280 0 -449.5 159.5t-169.5 432.5q0 168 60 325.5t166.5 280t268 196.5t351.5 74q279 0 449 -159t170 -431q0 -134 -37.5 -263t-111.5 -240t-174.5 -195t-235.5 -132t-287 -48zM746 209q106 0 201 35.5t165.5 97
t122 142t78 173t26.5 186.5q0 178 -106 277.5t-280 99.5q-131 0 -244.5 -54.5t-188.5 -144t-118 -203t-43 -232.5q0 -178 106.5 -277.5t280.5 -99.5z" />
    <glyph glyph-name="Ocircumflex" unicode="&#xd4;" horiz-adv-x="1624" 
d="M856 1566h-157l274 298h158l170 -298h-159l-107 205zM736 -20q-280 0 -449.5 159.5t-169.5 432.5q0 168 60 325.5t166.5 280t268 196.5t351.5 74q279 0 449 -159t170 -431q0 -134 -37.5 -263t-111.5 -240t-174.5 -195t-235.5 -132t-287 -48zM746 209q106 0 201 35.5
t165.5 97t122 142t78 173t26.5 186.5q0 178 -106 277.5t-280 99.5q-131 0 -244.5 -54.5t-188.5 -144t-118 -203t-43 -232.5q0 -178 106.5 -277.5t280.5 -99.5z" />
    <glyph glyph-name="Otilde" unicode="&#xd5;" horiz-adv-x="1624" 
d="M1149 1559q-120 0 -174 115q-22 52 -71 52q-43 0 -75 -42.5t-44 -109.5h-132q23 124 96.5 202.5t173.5 78.5q119 0 173 -114q23 -52 73 -52q44 0 74.5 40.5t42.5 109.5h133q-23 -123 -95 -201.5t-175 -78.5zM736 -20q-280 0 -449.5 159.5t-169.5 432.5q0 168 60 325.5
t166.5 280t268 196.5t351.5 74q279 0 449 -159t170 -431q0 -134 -37.5 -263t-111.5 -240t-174.5 -195t-235.5 -132t-287 -48zM746 209q106 0 201 35.5t165.5 97t122 142t78 173t26.5 186.5q0 178 -106 277.5t-280 99.5q-131 0 -244.5 -54.5t-188.5 -144t-118 -203
t-43 -232.5q0 -178 106.5 -277.5t280.5 -99.5z" />
    <glyph glyph-name="Odieresis" unicode="&#xd6;" horiz-adv-x="1624" 
d="M801 1566q-53 0 -85.5 38.5t-23.5 92.5q10 54 55.5 91.5t99.5 37.5q53 0 85 -38t22 -91q-9 -54 -54.5 -92.5t-98.5 -38.5zM1201 1566q-54 0 -85.5 38.5t-22.5 92.5q10 54 55 91.5t99 37.5t85 -37.5t21 -91.5q-9 -54 -54 -92.5t-98 -38.5zM736 -20q-280 0 -449.5 159.5
t-169.5 432.5q0 168 60 325.5t166.5 280t268 196.5t351.5 74q279 0 449 -159t170 -431q0 -134 -37.5 -263t-111.5 -240t-174.5 -195t-235.5 -132t-287 -48zM746 209q106 0 201 35.5t165.5 97t122 142t78 173t26.5 186.5q0 178 -106 277.5t-280 99.5q-131 0 -244.5 -54.5
t-188.5 -144t-118 -203t-43 -232.5q0 -178 106.5 -277.5t280.5 -99.5z" />
    <glyph glyph-name="multiply" unicode="&#xd7;" horiz-adv-x="1091" 
d="M302 271l-138 138l274 274l-274 274l138 137l274 -273l272 272l138 -136l-274 -274l274 -274l-138 -137l-272 274z" />
    <glyph glyph-name="Oslash" unicode="&#xd8;" horiz-adv-x="1624" 
d="M1358 1333q107 -76 165.5 -197.5t58.5 -277.5q0 -134 -37.5 -263t-111.5 -240t-174.5 -195t-235.5 -132t-287 -48q-158 0 -284 53l-101 -145l-109 64l99 142q-107 78 -165.5 199.5t-58.5 278.5q0 168 60 325.5t166.5 280t268 196.5t351.5 74q158 0 284 -53l102 146
l108 -65zM359 586q0 -191 122 -291l627 900q-68 25 -155 25q-131 0 -244.5 -54.5t-188.5 -144t-118 -203t-43 -232.5zM746 209q106 0 201 35.5t165.5 97t122 142t78 173t26.5 186.5q0 188 -121 291l-627 -901q71 -24 155 -24z" />
    <glyph glyph-name="Ugrave" unicode="&#xd9;" horiz-adv-x="1405" 
d="M809 1566l-179 265l141 89l196 -354h-158zM623 -20q-216 0 -347 106.5t-131 301.5q0 49 11 109l165 931h245l-160 -914q-9 -50 -9 -91q0 -114 62.5 -168.5t170.5 -54.5q138 0 240 84t131 246l159 898h246l-167 -948q-30 -165 -121 -279.5t-217 -167.5t-278 -53z" />
    <glyph glyph-name="Uacute" unicode="&#xda;" horiz-adv-x="1405" 
d="M806 1566l321 354l109 -89l-272 -265h-158zM623 -20q-216 0 -347 106.5t-131 301.5q0 49 11 109l165 931h245l-160 -914q-9 -50 -9 -91q0 -114 62.5 -168.5t170.5 -54.5q138 0 240 84t131 246l159 898h246l-167 -948q-30 -165 -121 -279.5t-217 -167.5t-278 -53z" />
    <glyph glyph-name="Ucircumflex" unicode="&#xdb;" horiz-adv-x="1405" 
d="M743 1566h-157l274 298h158l170 -298h-159l-107 205zM623 -20q-216 0 -347 106.5t-131 301.5q0 49 11 109l165 931h245l-160 -914q-9 -50 -9 -91q0 -114 62.5 -168.5t170.5 -54.5q138 0 240 84t131 246l159 898h246l-167 -948q-30 -165 -121 -279.5t-217 -167.5t-278 -53
z" />
    <glyph glyph-name="Udieresis" unicode="&#xdc;" horiz-adv-x="1405" 
d="M688 1566q-53 0 -85.5 38.5t-23.5 92.5q10 54 55.5 91.5t99.5 37.5q53 0 85 -38t22 -91q-9 -54 -54.5 -92.5t-98.5 -38.5zM1088 1566q-54 0 -85.5 38.5t-22.5 92.5q10 54 55 91.5t99 37.5t85 -37.5t21 -91.5q-9 -54 -54 -92.5t-98 -38.5zM623 -20q-216 0 -347 106.5
t-131 301.5q0 49 11 109l165 931h245l-160 -914q-9 -50 -9 -91q0 -114 62.5 -168.5t170.5 -54.5q138 0 240 84t131 246l159 898h246l-167 -948q-30 -165 -121 -279.5t-217 -167.5t-278 -53z" />
    <glyph glyph-name="Yacute" unicode="&#xdd;" horiz-adv-x="1221" 
d="M1143 1831l-272 -265h-158l321 354zM1367 1428l-606 -752l-119 -676h-248l122 683l-338 745h264l226 -529l414 529h285z" />
    <glyph glyph-name="Thorn" unicode="&#xde;" horiz-adv-x="1212" 
d="M774 1317q237 0 340.5 -95t103.5 -277q0 -73 -20.5 -144.5t-65 -138.5t-108 -118t-157.5 -81.5t-205 -30.5h-236l-76 -432h-251l76 432l86 487l70 398l38 215h251l-38 -215h192zM691 656q77 0 136.5 23.5t93.5 62.5t50.5 84t16.5 95q0 83 -49.5 127t-179.5 44h-216
l-77 -436h225z" />
    <glyph glyph-name="germandbls" unicode="&#xdf;" horiz-adv-x="1248" 
d="M60 0l175 994q22 127 66 226t98.5 161.5t124.5 102.5t139.5 56t148.5 16q192 0 305.5 -93t113.5 -241q0 -160 -131 -276q-5 -4 -20.5 -18t-21 -18.5t-17.5 -17t-17 -19t-13.5 -18t-11.5 -20.5t-6 -20.5t-3 -23.5q0 -27 19 -51.5t46.5 -48t55 -52.5t46.5 -78.5t19 -112.5
q0 -197 -127 -322.5t-325 -125.5h-206l34 188h118q111 0 185.5 77t74.5 186q0 37 -12.5 67.5t-32 50.5t-41.5 42.5t-41.5 43t-32 52.5t-12.5 70q0 41 7 73t26.5 60.5t31.5 42.5t46 45t46 42q82 77 82 177q0 65 -48 103t-135 38q-267 0 -327 -335l-180 -1023h-247z" />
    <glyph glyph-name="agrave" unicode="&#xe0;" horiz-adv-x="1265" 
d="M827 1164h-158l-178 264l140 90zM966 1008h236l-178 -1008h-215l13 153q-57 -84 -151 -130t-201 -46q-181 0 -295.5 115t-114.5 313q0 92 26 182t75.5 169t117 140t157 96t187.5 35q115 0 199 -49.5t116 -133.5zM537 177q80 0 150.5 37t116.5 95.5t72.5 127.5t26.5 135
q0 112 -65 184.5t-177 72.5q-106 0 -190.5 -61t-128 -152t-43.5 -188q0 -117 65 -184t173 -67z" />
    <glyph glyph-name="aacute" unicode="&#xe1;" horiz-adv-x="1265" 
d="M1097 1428l-273 -264h-158l321 354zM966 1008h236l-178 -1008h-215l13 153q-57 -84 -151 -130t-201 -46q-181 0 -295.5 115t-114.5 313q0 92 26 182t75.5 169t117 140t157 96t187.5 35q115 0 199 -49.5t116 -133.5zM537 177q80 0 150.5 37t116.5 95.5t72.5 127.5
t26.5 135q0 112 -65 184.5t-177 72.5q-106 0 -190.5 -61t-128 -152t-43.5 -188q0 -117 65 -184t173 -67z" />
    <glyph glyph-name="acircumflex" unicode="&#xe2;" horiz-adv-x="1265" 
d="M789 1398l-179 -206h-158l275 298h158l169 -298h-158zM966 1008h236l-178 -1008h-215l13 153q-57 -84 -151 -130t-201 -46q-181 0 -295.5 115t-114.5 313q0 92 26 182t75.5 169t117 140t157 96t187.5 35q115 0 199 -49.5t116 -133.5zM537 177q80 0 150.5 37t116.5 95.5
t72.5 127.5t26.5 135q0 112 -65 184.5t-177 72.5q-106 0 -190.5 -61t-128 -152t-43.5 -188q0 -117 65 -184t173 -67z" />
    <glyph glyph-name="atilde" unicode="&#xe3;" horiz-adv-x="1265" 
d="M667 1299q-36 0 -62 -36t-36 -94h-124q20 111 85 181t154 70q108 0 153 -101q17 -42 60 -42q73 0 96 129h124q-19 -109 -83.5 -179.5t-155.5 -70.5q-108 0 -154 100q-18 43 -57 43zM966 1008h236l-178 -1008h-215l13 153q-57 -84 -151 -130t-201 -46q-181 0 -295.5 115
t-114.5 313q0 92 26 182t75.5 169t117 140t157 96t187.5 35q115 0 199 -49.5t116 -133.5zM537 177q80 0 150.5 37t116.5 95.5t72.5 127.5t26.5 135q0 112 -65 184.5t-177 72.5q-106 0 -190.5 -61t-128 -152t-43.5 -188q0 -117 65 -184t173 -67z" />
    <glyph glyph-name="adieresis" unicode="&#xe4;" horiz-adv-x="1265" 
d="M563 1213q-62 0 -102 44t-33 106q7 61 56 104.5t111 43.5q61 0 99.5 -43.5t32.5 -104.5q-6 -62 -55 -106t-109 -44zM975 1213q-62 0 -102 44t-33 106q7 61 56 104.5t111 43.5q61 0 99.5 -43.5t32.5 -104.5q-6 -62 -55 -106t-109 -44zM966 1008h236l-178 -1008h-215
l13 153q-57 -84 -151 -130t-201 -46q-181 0 -295.5 115t-114.5 313q0 92 26 182t75.5 169t117 140t157 96t187.5 35q115 0 199 -49.5t116 -133.5zM537 177q80 0 150.5 37t116.5 95.5t72.5 127.5t26.5 135q0 112 -65 184.5t-177 72.5q-106 0 -190.5 -61t-128 -152t-43.5 -188
q0 -117 65 -184t173 -67z" />
    <glyph glyph-name="aring" unicode="&#xe5;" horiz-adv-x="1265" 
d="M758 1132q-95 0 -155.5 68t-51.5 163q11 94 86 161t171 67q93 0 152.5 -67t48.5 -161q-9 -95 -83 -163t-168 -68zM663 1363q-5 -54 25.5 -87.5t81.5 -33.5t89 34t43 87q5 49 -25.5 85.5t-80.5 36.5t-89 -36.5t-44 -85.5zM966 1008h236l-178 -1008h-215l13 153
q-57 -84 -151 -130t-201 -46q-181 0 -295.5 115t-114.5 313q0 92 26 182t75.5 169t117 140t157 96t187.5 35q115 0 199 -49.5t116 -133.5zM537 177q80 0 150.5 37t116.5 95.5t72.5 127.5t26.5 135q0 112 -65 184.5t-177 72.5q-106 0 -190.5 -61t-128 -152t-43.5 -188
q0 -117 65 -184t173 -67z" />
    <glyph glyph-name="ae" unicode="&#xe6;" horiz-adv-x="1766" 
d="M1283 1034q195 0 311 -101t116 -294q0 -64 -12 -125l-14 -59h-764q-5 -35 -5 -59q0 -106 61.5 -161t162.5 -55q85 0 159 42.5t121 116.5l224 -53q-80 -149 -213.5 -227.5t-298.5 -78.5q-129 0 -227.5 44t-155.5 127h-14q-185 -171 -418 -171q-131 0 -212 57.5t-81 172.5
q0 75 23.5 133t61 95.5t97.5 66.5t119 45.5t140 31.5l155 28q61 12 92 47t31 85q0 114 -151 114q-92 0 -161 -45.5t-95 -137.5l-216 55q55 158 174.5 231t310.5 73q230 0 315 -115q155 117 364 117zM1279 856q-105 0 -188.5 -57t-128.5 -169h511q3 21 3 39q0 93 -51 140
t-146 47zM396 165q75 0 151 43t135 116q-6 38 -6 79q0 32 3 62l-200 -44q-208 -38 -208 -166q0 -45 34.5 -67.5t90.5 -22.5z" />
    <glyph glyph-name="ccedilla" unicode="&#xe7;" horiz-adv-x="1126" 
d="M514 172q101 0 183 52.5t127 147.5l216 -43q-68 -160 -202 -250.5t-301 -97.5l-78 -109q34 6 49 6q86 0 132 -53.5t31 -137.5q-16 -92 -90 -155.5t-166 -63.5q-81 0 -139 41t-74 103l121 42q12 -31 42.5 -49.5t65.5 -18.5q42 0 77 28t43 73q9 46 -16.5 72t-71.5 26
q-45 0 -81 -27l-85 57l122 173q-167 26 -264 138.5t-97 284.5q0 117 43 227t119.5 197t193 139.5t252.5 52.5q188 0 304 -96t126 -265l-219 -12q-22 184 -216 184q-83 0 -154.5 -39t-117.5 -101.5t-71.5 -138t-25.5 -151.5q0 -109 60 -172.5t162 -63.5z" />
    <glyph glyph-name="egrave" unicode="&#xe8;" horiz-adv-x="1138" 
d="M786 1162h-158l-178 264l140 90zM661 1028q194 0 307.5 -99.5t113.5 -291.5q0 -63 -11 -124l-12 -52h-769q-3 -33 -3 -67q0 -110 63 -167t166 -57q87 0 162.5 43.5t124.5 119.5l211 -50q-76 -144 -209 -223.5t-290 -79.5q-211 0 -332.5 110.5t-121.5 307.5q0 97 25 189
t76 172t121.5 140t168 94.5t209.5 34.5zM659 859q-120 0 -203.5 -64t-126.5 -172h529q3 23 3 42q0 96 -54.5 145t-147.5 49z" />
    <glyph glyph-name="eacute" unicode="&#xe9;" horiz-adv-x="1138" 
d="M1056 1426l-273 -264h-158l321 354zM661 1028q194 0 307.5 -99.5t113.5 -291.5q0 -63 -11 -124l-12 -52h-769q-3 -33 -3 -67q0 -110 63 -167t166 -57q87 0 162.5 43.5t124.5 119.5l211 -50q-76 -144 -209 -223.5t-290 -79.5q-211 0 -332.5 110.5t-121.5 307.5
q0 97 25 189t76 172t121.5 140t168 94.5t209.5 34.5zM659 859q-120 0 -203.5 -64t-126.5 -172h529q3 23 3 42q0 96 -54.5 145t-147.5 49z" />
    <glyph glyph-name="ecircumflex" unicode="&#xea;" horiz-adv-x="1138" 
d="M748 1396l-179 -206h-158l275 298h158l169 -298h-158zM661 1028q194 0 307.5 -99.5t113.5 -291.5q0 -63 -11 -124l-12 -52h-769q-3 -33 -3 -67q0 -110 63 -167t166 -57q87 0 162.5 43.5t124.5 119.5l211 -50q-76 -144 -209 -223.5t-290 -79.5q-211 0 -332.5 110.5
t-121.5 307.5q0 97 25 189t76 172t121.5 140t168 94.5t209.5 34.5zM659 859q-120 0 -203.5 -64t-126.5 -172h529q3 23 3 42q0 96 -54.5 145t-147.5 49z" />
    <glyph glyph-name="edieresis" unicode="&#xeb;" horiz-adv-x="1138" 
d="M522 1211q-62 0 -102 44t-33 106q7 61 56 104.5t111 43.5q61 0 99.5 -43.5t32.5 -104.5q-6 -62 -55 -106t-109 -44zM966 1509q61 0 99.5 -43.5t32.5 -104.5q-6 -62 -55 -106t-109 -44q-62 0 -102 44t-33 106q7 61 56 104.5t111 43.5zM661 1028q194 0 307.5 -99.5
t113.5 -291.5q0 -63 -11 -124l-12 -52h-769q-3 -33 -3 -67q0 -110 63 -167t166 -57q87 0 162.5 43.5t124.5 119.5l211 -50q-76 -144 -209 -223.5t-290 -79.5q-211 0 -332.5 110.5t-121.5 307.5q0 97 25 189t76 172t121.5 140t168 94.5t209.5 34.5zM659 859
q-120 0 -203.5 -64t-126.5 -172h529q3 23 3 42q0 96 -54.5 145t-147.5 49z" />
    <glyph glyph-name="igrave" unicode="&#xec;" horiz-adv-x="551" 
d="M314 1164l-178 264l140 90l196 -354h-158zM61 0l179 1013h251l-180 -1013h-250z" />
    <glyph glyph-name="iacute" unicode="&#xed;" horiz-adv-x="551" 
d="M311 1164l321 354l110 -90l-273 -264h-158zM61 0l179 1013h251l-180 -1013h-250z" />
    <glyph glyph-name="icircumflex" unicode="&#xee;" horiz-adv-x="551" 
d="M255 1192h-158l275 298h158l169 -298h-158l-107 206zM61 0l179 1013h251l-180 -1013h-250z" />
    <glyph glyph-name="idieresis" unicode="&#xef;" horiz-adv-x="551" 
d="M208 1213q-62 0 -102 44t-33 106q7 61 56 104.5t111 43.5q61 0 99.5 -43.5t32.5 -104.5q-6 -62 -55 -106t-109 -44zM620 1213q-62 0 -102 44t-33 106q7 61 56 104.5t111 43.5q61 0 99.5 -43.5t32.5 -104.5q-6 -62 -55 -106t-109 -44zM61 0l179 1013h251l-180 -1013h-250z
" />
    <glyph glyph-name="eth" unicode="&#xf0;" horiz-adv-x="1174" 
d="M1035 856q71 -139 71 -300q0 -115 -41 -219t-114.5 -183t-185.5 -126t-245 -47q-215 0 -337.5 118.5t-122.5 317.5q0 121 45 234t118.5 194.5t173.5 130.5t205 49q43 0 90 -10l-122 215l-259 -64l-8 80l227 56l-133 234h279l93 -176l245 60l7 -79l-214 -53zM538 206
q84 0 151 35t106 91t59 118.5t20 124.5q0 106 -61 174t-164 68q-84 0 -152 -36.5t-107.5 -94t-60.5 -122t-21 -127.5q0 -106 63.5 -168.5t166.5 -62.5z" />
    <glyph glyph-name="ntilde" unicode="&#xf1;" horiz-adv-x="1158" 
d="M610 1294q-36 0 -62 -36t-36 -94h-124q20 111 85 181t154 70q108 0 153 -101q17 -42 60 -42q73 0 96 129h124q-19 -109 -83.5 -179.5t-155.5 -70.5q-108 0 -154 100q-18 43 -57 43zM777 1027q134 0 211 -72t77 -199q0 -26 -8 -86l-120 -670h-237l116 646q5 33 5 53
q0 136 -151 136q-86 0 -160.5 -56.5t-104.5 -167.5l-109 -611h-235l178 1008h236l-24 -133q132 152 326 152z" />
    <glyph glyph-name="ograve" unicode="&#xf2;" horiz-adv-x="1202" 
d="M635 1158l-178 264l140 90l196 -354h-158zM523 -20q-209 0 -336 114.5t-127 312.5q0 121 42.5 232.5t120 198t195.5 138t259 51.5q211 0 337.5 -114t126.5 -311q0 -122 -43 -233.5t-121 -198.5t-196 -138.5t-258 -51.5zM529 171q85 0 158.5 38t120 99t73 135t26.5 148
q0 113 -65 180t-175 67q-85 0 -157 -38.5t-118 -99.5t-71.5 -134.5t-25.5 -147.5q0 -115 63 -181t171 -66z" />
    <glyph glyph-name="oacute" unicode="&#xf3;" horiz-adv-x="1202" 
d="M632 1158l321 354l110 -90l-273 -264h-158zM523 -20q-209 0 -336 114.5t-127 312.5q0 121 42.5 232.5t120 198t195.5 138t259 51.5q211 0 337.5 -114t126.5 -311q0 -122 -43 -233.5t-121 -198.5t-196 -138.5t-258 -51.5zM529 171q85 0 158.5 38t120 99t73 135t26.5 148
q0 113 -65 180t-175 67q-85 0 -157 -38.5t-118 -99.5t-71.5 -134.5t-25.5 -147.5q0 -115 63 -181t171 -66z" />
    <glyph glyph-name="ocircumflex" unicode="&#xf4;" horiz-adv-x="1202" 
d="M576 1186h-158l275 298h158l169 -298h-158l-107 206zM523 -20q-209 0 -336 114.5t-127 312.5q0 121 42.5 232.5t120 198t195.5 138t259 51.5q211 0 337.5 -114t126.5 -311q0 -122 -43 -233.5t-121 -198.5t-196 -138.5t-258 -51.5zM529 171q85 0 158.5 38t120 99t73 135
t26.5 148q0 113 -65 180t-175 67q-85 0 -157 -38.5t-118 -99.5t-71.5 -134.5t-25.5 -147.5q0 -115 63 -181t171 -66z" />
    <glyph glyph-name="otilde" unicode="&#xf5;" horiz-adv-x="1202" 
d="M844 1150q-108 0 -154 100q-18 43 -57 43q-36 0 -62 -36t-36 -94h-124q20 111 85 181t154 70q108 0 153 -101q17 -42 60 -42q73 0 96 129h124q-19 -109 -83.5 -179.5t-155.5 -70.5zM523 -20q-209 0 -336 114.5t-127 312.5q0 121 42.5 232.5t120 198t195.5 138t259 51.5
q211 0 337.5 -114t126.5 -311q0 -122 -43 -233.5t-121 -198.5t-196 -138.5t-258 -51.5zM529 171q85 0 158.5 38t120 99t73 135t26.5 148q0 113 -65 180t-175 67q-85 0 -157 -38.5t-118 -99.5t-71.5 -134.5t-25.5 -147.5q0 -115 63 -181t171 -66z" />
    <glyph glyph-name="odieresis" unicode="&#xf6;" horiz-adv-x="1202" 
d="M529 1207q-62 0 -102 44t-33 106q7 61 56 104.5t111 43.5q61 0 99.5 -43.5t32.5 -104.5q-6 -62 -55 -106t-109 -44zM941 1207q-62 0 -102 44t-33 106q7 61 56 104.5t111 43.5q61 0 99.5 -43.5t32.5 -104.5q-6 -62 -55 -106t-109 -44zM523 -20q-209 0 -336 114.5
t-127 312.5q0 121 42.5 232.5t120 198t195.5 138t259 51.5q211 0 337.5 -114t126.5 -311q0 -122 -43 -233.5t-121 -198.5t-196 -138.5t-258 -51.5zM529 171q85 0 158.5 38t120 99t73 135t26.5 148q0 113 -65 180t-175 67q-85 0 -157 -38.5t-118 -99.5t-71.5 -134.5
t-25.5 -147.5q0 -115 63 -181t171 -66z" />
    <glyph glyph-name="divide" unicode="&#xf7;" horiz-adv-x="1060" 
d="M555 931q-55 0 -95 39.5t-40 97.5q0 54 40.5 95t94.5 41q55 0 96.5 -41t41.5 -95q0 -58 -41 -97.5t-97 -39.5zM140 598v193h844v-193h-844zM555 185q-55 0 -95 39.5t-40 97.5q0 54 40.5 94.5t94.5 40.5q55 0 96.5 -40.5t41.5 -94.5q0 -58 -41 -97.5t-97 -39.5z" />
    <glyph glyph-name="oslash" unicode="&#xf8;" horiz-adv-x="1202" 
d="M978 942q163 -116 163 -340q0 -122 -43 -233.5t-121 -198.5t-196 -138.5t-258 -51.5q-104 0 -194 31l-82 -118l-106 63l78 112q-159 116 -159 339q0 121 42.5 232.5t120 198t195.5 138t259 51.5q104 0 191 -29l82 117l105 -63zM295 418q0 -103 51 -168l403 577
q-39 11 -82 11q-85 0 -157 -38.5t-118 -99.5t-71.5 -134.5t-25.5 -147.5zM529 171q85 0 158.5 38t120 99t73 135t26.5 148q0 103 -55 169l-403 -578q38 -11 80 -11z" />
    <glyph glyph-name="ugrave" unicode="&#xf9;" horiz-adv-x="1158" 
d="M776 1159h-158l-178 264l140 90zM860 1008h236l-178 -1008h-223l19 144q-63 -77 -148.5 -120.5t-183.5 -43.5q-136 0 -213 72t-77 201q0 35 8 85l119 670h236l-111 -624q-6 -36 -6 -62q0 -73 39.5 -107.5t105.5 -34.5q102 0 177 63.5t95 175.5h2z" />
    <glyph glyph-name="uacute" unicode="&#xfa;" horiz-adv-x="1158" 
d="M1046 1423l-273 -264h-158l321 354zM860 1008h236l-178 -1008h-223l19 144q-63 -77 -148.5 -120.5t-183.5 -43.5q-136 0 -213 72t-77 201q0 35 8 85l119 670h236l-111 -624q-6 -36 -6 -62q0 -73 39.5 -107.5t105.5 -34.5q102 0 177 63.5t95 175.5h2z" />
    <glyph glyph-name="ucircumflex" unicode="&#xfb;" horiz-adv-x="1158" 
d="M738 1393l-179 -206h-158l275 298h158l169 -298h-158zM860 1008h236l-178 -1008h-223l19 144q-63 -77 -148.5 -120.5t-183.5 -43.5q-136 0 -213 72t-77 201q0 35 8 85l119 670h236l-111 -624q-6 -36 -6 -62q0 -73 39.5 -107.5t105.5 -34.5q102 0 177 63.5t95 175.5h2z
" />
    <glyph glyph-name="udieresis" unicode="&#xfc;" horiz-adv-x="1158" 
d="M512 1208q-62 0 -102 44t-33 106q7 61 56 104.5t111 43.5q61 0 99.5 -43.5t32.5 -104.5q-6 -62 -55 -106t-109 -44zM924 1208q-62 0 -102 44t-33 106q7 61 56 104.5t111 43.5q61 0 99.5 -43.5t32.5 -104.5q-6 -62 -55 -106t-109 -44zM860 1008h236l-178 -1008h-223
l19 144q-63 -77 -148.5 -120.5t-183.5 -43.5q-136 0 -213 72t-77 201q0 35 8 85l119 670h236l-111 -624q-6 -36 -6 -62q0 -73 39.5 -107.5t105.5 -34.5q102 0 177 63.5t95 175.5h2z" />
    <glyph glyph-name="yacute" unicode="&#xfd;" horiz-adv-x="1044" 
d="M984 1423l-273 -264h-158l321 354zM878 1008h248l-866 -1482h-246l310 518l-229 964h253l133 -712z" />
    <glyph glyph-name="thorn" unicode="&#xfe;" horiz-adv-x="1276" 
d="M816 1033q177 0 288.5 -110t111.5 -300q0 -122 -43 -238t-118 -206.5t-186.5 -146t-238.5 -55.5q-106 0 -185.5 43.5t-110.5 121.5l-113 -641h-250l359 2035h250l-118 -668q59 78 153.5 121.5t200.5 43.5zM612 186q105 0 187 59.5t123 148t41 184.5q0 114 -66 179.5
t-172 65.5q-79 0 -147 -35t-112 -91t-69 -124t-25 -136q0 -113 66 -182t174 -69z" />
    <glyph glyph-name="ydieresis" unicode="&#xff;" horiz-adv-x="1044" 
d="M450 1208q-62 0 -102 44t-33 106q7 61 56 104.5t111 43.5q61 0 99.5 -43.5t32.5 -104.5q-6 -62 -55 -106t-109 -44zM862 1208q-62 0 -102 44t-33 106q7 61 56 104.5t111 43.5q61 0 99.5 -43.5t32.5 -104.5q-6 -62 -55 -106t-109 -44zM878 1008h248l-866 -1482h-246
l310 518l-229 964h253l133 -712z" />
    <glyph glyph-name="Amacron" unicode="&#x100;" horiz-adv-x="1412" 
d="M1248 1716l-26 -150h-658l26 150h658zM1042 0l-56 316h-621l-168 -316h-256l777 1428h298l276 -1428h-250zM476 525h473l-119 667z" />
    <glyph glyph-name="amacron" unicode="&#x101;" horiz-adv-x="1265" 
d="M1110 1341l-27 -150h-658l26 150h659zM966 1008h236l-178 -1008h-215l13 153q-57 -84 -151 -130t-201 -46q-181 0 -295.5 115t-114.5 313q0 92 26 182t75.5 169t117 140t157 96t187.5 35q115 0 199 -49.5t116 -133.5zM537 177q80 0 150.5 37t116.5 95.5t72.5 127.5
t26.5 135q0 112 -65 184.5t-177 72.5q-106 0 -190.5 -61t-128 -152t-43.5 -188q0 -117 65 -184t173 -67z" />
    <glyph glyph-name="Abreve" unicode="&#x102;" horiz-adv-x="1412" 
d="M893 1566q-166 0 -249 69t-56 218h146q-15 -84 34 -125.5t146 -41.5q99 0 162.5 41t78.5 126h146q-27 -149 -134 -218t-274 -69zM718 1428h298l276 -1428h-250l-56 316h-621l-168 -316h-256zM476 525h473l-119 667z" />
    <glyph glyph-name="abreve" unicode="&#x103;" horiz-adv-x="1265" 
d="M746 1151q-160 0 -242.5 89t-53.5 250h146q-17 -96 30 -157.5t140 -61.5q95 0 164.5 61t86.5 158h146q-29 -161 -142 -250t-275 -89zM966 1008h236l-178 -1008h-215l13 153q-57 -84 -151 -130t-201 -46q-181 0 -295.5 115t-114.5 313q0 92 26 182t75.5 169t117 140
t157 96t187.5 35q115 0 199 -49.5t116 -133.5zM537 177q80 0 150.5 37t116.5 95.5t72.5 127.5t26.5 135q0 112 -65 184.5t-177 72.5q-106 0 -190.5 -61t-128 -152t-43.5 -188q0 -117 65 -184t173 -67z" />
    <glyph glyph-name="Aogonek" unicode="&#x104;" horiz-adv-x="1412" 
d="M1083 -223q-4 -19 10.5 -28.5t47.5 -9.5q64 0 112 37l-29 -164q-64 -24 -135 -24q-87 0 -133 27t-37 77q19 106 264 308h-141l-56 316h-621l-168 -316h-256l777 1428h298l276 -1428q-198 -158 -209 -223zM476 525h473l-119 667z" />
    <glyph glyph-name="aogonek" unicode="&#x105;" horiz-adv-x="1265" 
d="M1024 0q-198 -158 -209 -223q-4 -19 10.5 -28.5t47.5 -9.5q64 0 112 37l-29 -164q-64 -24 -135 -24q-87 0 -133 27t-37 77q19 106 264 308h-106l13 153q-57 -84 -151 -130t-201 -46q-181 0 -295.5 115t-114.5 313q0 92 26 182t75.5 169t117 140t157 96t187.5 35
q115 0 199 -49.5t116 -133.5l28 164h236zM537 177q80 0 150.5 37t116.5 95.5t72.5 127.5t26.5 135q0 112 -65 184.5t-177 72.5q-106 0 -190.5 -61t-128 -152t-43.5 -188q0 -117 65 -184t173 -67z" />
    <glyph glyph-name="Cacute" unicode="&#x106;" horiz-adv-x="1530" 
d="M920 1566l321 354l109 -89l-272 -265h-158zM736 -20q-280 0 -449.5 159.5t-169.5 432.5q0 168 60 325.5t166.5 280t268 196.5t351.5 74q232 0 391 -112t207 -306l-239 -71q-32 126 -129.5 193.5t-239.5 67.5q-131 0 -244.5 -54.5t-188.5 -143.5t-118 -202.5t-43 -232.5
q0 -178 106.5 -278t280.5 -100q150 0 280 74t207 202l217 -102q-113 -191 -302.5 -297t-411.5 -106z" />
    <glyph glyph-name="cacute" unicode="&#x107;" horiz-adv-x="1126" 
d="M611 1159l321 354l110 -90l-273 -264h-158zM513 -19q-207 0 -331 117t-124 313q0 117 43 227t119.5 197t193 139.5t252.5 52.5q188 0 304 -96t126 -265l-219 -12q-22 184 -216 184q-83 0 -154.5 -39t-117.5 -101.5t-71.5 -138t-25.5 -151.5q0 -109 60 -172.5t162 -63.5
q101 0 183 52.5t127 147.5l216 -43q-70 -166 -211.5 -257t-315.5 -91z" />
    <glyph glyph-name="Cdotaccent" unicode="&#x10a;" horiz-adv-x="1530" 
d="M1003 1566q-62 0 -98.5 44t-26.5 106q11 61 63.5 104.5t114.5 43.5q60 0 96 -43.5t25 -104.5q-10 -62 -61.5 -106t-112.5 -44zM736 -20q-280 0 -449.5 159.5t-169.5 432.5q0 168 60 325.5t166.5 280t268 196.5t351.5 74q232 0 391 -112t207 -306l-239 -71
q-32 126 -129.5 193.5t-239.5 67.5q-131 0 -244.5 -54.5t-188.5 -143.5t-118 -202.5t-43 -232.5q0 -178 106.5 -278t280.5 -100q150 0 280 74t207 202l217 -102q-113 -191 -302.5 -297t-411.5 -106z" />
    <glyph glyph-name="cdotaccent" unicode="&#x10b;" horiz-adv-x="1126" 
d="M713 1208q-62 0 -101 44t-33 106q6 61 55 104.5t112 43.5q60 0 99.5 -43.5t32.5 -104.5q-7 -62 -56 -106t-109 -44zM513 -19q-207 0 -331 117t-124 313q0 117 43 227t119.5 197t193 139.5t252.5 52.5q188 0 304 -96t126 -265l-219 -12q-22 184 -216 184q-83 0 -154.5 -39
t-117.5 -101.5t-71.5 -138t-25.5 -151.5q0 -109 60 -172.5t162 -63.5q101 0 183 52.5t127 147.5l216 -43q-70 -166 -211.5 -257t-315.5 -91z" />
    <glyph glyph-name="Ccaron" unicode="&#x10c;" horiz-adv-x="1530" 
d="M921 1566l-169 298h157l107 -206l180 206h158l-274 -298h-159zM736 -20q-280 0 -449.5 159.5t-169.5 432.5q0 168 60 325.5t166.5 280t268 196.5t351.5 74q232 0 391 -112t207 -306l-239 -71q-32 126 -129.5 193.5t-239.5 67.5q-131 0 -244.5 -54.5t-188.5 -143.5
t-118 -202.5t-43 -232.5q0 -178 106.5 -278t280.5 -100q150 0 280 74t207 202l217 -102q-113 -191 -302.5 -297t-411.5 -106z" />
    <glyph glyph-name="ccaron" unicode="&#x10d;" horiz-adv-x="1126" 
d="M619 1187l-169 298h157l107 -206l179 206h159l-275 -298h-158zM513 -19q-207 0 -331 117t-124 313q0 117 43 227t119.5 197t193 139.5t252.5 52.5q188 0 304 -96t126 -265l-219 -12q-22 184 -216 184q-83 0 -154.5 -39t-117.5 -101.5t-71.5 -138t-25.5 -151.5
q0 -109 60 -172.5t162 -63.5q101 0 183 52.5t127 147.5l216 -43q-70 -166 -211.5 -257t-315.5 -91z" />
    <glyph glyph-name="Dcaron" unicode="&#x10e;" horiz-adv-x="1448" 
d="M714 1566l-169 298h157l107 -206l180 206h158l-274 -298h-159zM99 0l252 1428h484q278 0 423 -146.5t145 -399.5q0 -89 -14 -176.5t-44.5 -175.5t-75.5 -165.5t-111 -145t-146.5 -116t-186 -76t-226.5 -27.5h-500zM383 219h228q95 0 176 28.5t138.5 78t101.5 113.5
t70 139t38.5 149.5t12.5 149.5q0 161 -85.5 247t-260.5 86h-244z" />
    <glyph glyph-name="dcaron" unicode="&#x10f;" horiz-adv-x="1474" 
d="M944 854l118 682h248l-271 -1536h-237l16 138q-57 -77 -147.5 -119t-193.5 -42q-183 0 -299 115t-116 312q0 118 41.5 231t114 201.5t180.5 142.5t232 54q113 0 197.5 -48t116.5 -131zM1473 1536h257l-203 -642h-180zM537 186q81 0 153 37.5t118.5 97t73.5 130t27 138.5
q0 106 -63.5 170.5t-163.5 64.5q-107 0 -194 -61.5t-132 -153.5t-45 -189q0 -109 62 -171.5t164 -62.5z" />
    <glyph glyph-name="Dcroat" unicode="&#x110;" horiz-adv-x="1448" 
d="M835 1428q278 0 423 -146.5t145 -399.5q0 -89 -14 -176.5t-44.5 -175.5t-75.5 -165.5t-111 -145t-146.5 -116t-186 -76t-226.5 -27.5h-500l112 636h-162l27 156h163l112 636h484zM611 219q95 0 176 28.5t138.5 78t101.5 113.5t70 139t38.5 149.5t12.5 149.5
q0 161 -85.5 247t-260.5 86h-244l-74 -418h254l-27 -156h-254l-74 -417h228z" />
    <glyph glyph-name="dcroat" unicode="&#x111;" horiz-adv-x="1263" 
d="M1413 1341l-27 -156h-153l-209 -1185h-225l18 146q-58 -81 -150.5 -125t-196.5 -44q-181 0 -295.5 115t-114.5 310q0 117 41.5 229.5t113.5 200t179 141.5t230 54q114 0 198.5 -49.5t116.5 -134.5l59 342h-274l27 156h274l34 195h236l-34 -195h152zM541 177
q106 0 190.5 62t127 150.5t42.5 180.5q0 118 -67.5 188.5t-175.5 70.5q-105 0 -189 -60t-127 -149.5t-43 -185.5q0 -120 67 -188.5t175 -68.5z" />
    <glyph glyph-name="Emacron" unicode="&#x112;" horiz-adv-x="1099" 
d="M1136 1716l-26 -150h-658l26 150h658zM1113 1210h-552l-68 -388h488l-38 -216h-488l-68 -387h551l-38 -219h-801l252 1428h801z" />
    <glyph glyph-name="emacron" unicode="&#x113;" horiz-adv-x="1138" 
d="M1069 1339l-27 -150h-658l26 150h659zM661 1028q194 0 307.5 -99.5t113.5 -291.5q0 -63 -11 -124l-12 -52h-769q-3 -33 -3 -67q0 -110 63 -167t166 -57q87 0 162.5 43.5t124.5 119.5l211 -50q-76 -144 -209 -223.5t-290 -79.5q-211 0 -332.5 110.5t-121.5 307.5
q0 97 25 189t76 172t121.5 140t168 94.5t209.5 34.5zM659 859q-120 0 -203.5 -64t-126.5 -172h529q3 23 3 42q0 96 -54.5 145t-147.5 49z" />
    <glyph glyph-name="Edotaccent" unicode="&#x116;" horiz-adv-x="1099" 
d="M783 1566q-62 0 -98.5 44t-26.5 106q11 61 63.5 104.5t114.5 43.5q60 0 96 -43.5t25 -104.5q-10 -62 -61.5 -106t-112.5 -44zM1113 1210h-552l-68 -388h488l-38 -216h-488l-68 -387h551l-38 -219h-801l252 1428h801z" />
    <glyph glyph-name="edotaccent" unicode="&#x117;" horiz-adv-x="1138" 
d="M727 1211q-62 0 -101 44t-33 106q6 61 55 104.5t112 43.5q60 0 99.5 -43.5t32.5 -104.5q-7 -62 -56 -106t-109 -44zM661 1028q194 0 307.5 -99.5t113.5 -291.5q0 -63 -11 -124l-12 -52h-769q-3 -33 -3 -67q0 -110 63 -167t166 -57q87 0 162.5 43.5t124.5 119.5l211 -50
q-76 -144 -209 -223.5t-290 -79.5q-211 0 -332.5 110.5t-121.5 307.5q0 97 25 189t76 172t121.5 140t168 94.5t209.5 34.5zM659 859q-120 0 -203.5 -64t-126.5 -172h529q3 23 3 42q0 96 -54.5 145t-147.5 49z" />
    <glyph glyph-name="Eogonek" unicode="&#x118;" horiz-adv-x="1099" 
d="M1113 1210h-552l-68 -388h488l-38 -216h-488l-68 -387h551l-38 -219q-198 -158 -209 -223q-4 -19 10.5 -28.5t47.5 -9.5q64 0 112 37l-29 -164q-64 -24 -135 -24q-87 0 -133 27t-37 77q19 106 264 308h-692l252 1428h801z" />
    <glyph glyph-name="eogonek" unicode="&#x119;" horiz-adv-x="1138" 
d="M661 1028q194 0 307.5 -99.5t113.5 -291.5q0 -63 -11 -124l-12 -52h-769q-3 -33 -3 -67q0 -110 63 -167t166 -57q87 0 162.5 43.5t124.5 119.5l211 -50q-74 -140 -204 -220q-109 -99 -116 -145q-4 -19 10.5 -28.5t47.5 -9.5q64 0 112 37l-29 -164q-64 -24 -135 -24
q-87 0 -133 27t-37 77q11 63 102 159q-57 -12 -117 -12q-211 0 -332.5 110.5t-121.5 307.5q0 97 25 189t76 172t121.5 140t168 94.5t209.5 34.5zM659 859q-120 0 -203.5 -64t-126.5 -172h529q3 23 3 42q0 96 -54.5 145t-147.5 49z" />
    <glyph glyph-name="Ecaron" unicode="&#x11a;" horiz-adv-x="1099" 
d="M860 1566h-159l-169 298h157l107 -206l180 206h158zM1113 1210h-552l-68 -388h488l-38 -216h-488l-68 -387h551l-38 -219h-801l252 1428h801z" />
    <glyph glyph-name="ecaron" unicode="&#x11b;" horiz-adv-x="1138" 
d="M791 1190h-158l-169 298h157l107 -206l179 206h159zM661 1028q194 0 307.5 -99.5t113.5 -291.5q0 -63 -11 -124l-12 -52h-769q-3 -33 -3 -67q0 -110 63 -167t166 -57q87 0 162.5 43.5t124.5 119.5l211 -50q-76 -144 -209 -223.5t-290 -79.5q-211 0 -332.5 110.5
t-121.5 307.5q0 97 25 189t76 172t121.5 140t168 94.5t209.5 34.5zM659 859q-120 0 -203.5 -64t-126.5 -172h529q3 23 3 42q0 96 -54.5 145t-147.5 49z" />
    <glyph glyph-name="Gbreve" unicode="&#x11e;" horiz-adv-x="1609" 
d="M991 1566q-166 0 -249 69t-56 218h146q-15 -84 34 -125.5t146 -41.5q99 0 162.5 41t78.5 126h146q-27 -149 -134 -218t-274 -69zM723 -20q-275 0 -441.5 157.5t-166.5 428.5q0 135 37 264t110 240.5t173.5 196t236 133t289.5 48.5q207 0 357.5 -90t215.5 -252l-228 -101
q-41 114 -132.5 169.5t-219.5 55.5q-136 0 -250.5 -57.5t-189 -152t-115.5 -213t-41 -243.5q0 -176 103 -271t289 -95q179 0 314.5 93t193.5 270l-430 -7l36 201h666l-134 -755h-196l45 223q-189 -243 -522 -243z" />
    <glyph glyph-name="gbreve" unicode="&#x11f;" horiz-adv-x="1238" 
d="M707 1146q-160 0 -242.5 89t-53.5 250h146q-17 -96 30 -157.5t140 -61.5q95 0 164.5 61t86.5 158h146q-29 -161 -142 -250t-275 -89zM948 1008h227l-167 -951q-48 -271 -202.5 -402.5t-391.5 -131.5q-203 0 -317 84t-147 235l204 72q25 -105 85.5 -153.5t167.5 -48.5
q148 0 242 91.5t121 253.5l21 127q-55 -69 -146 -110.5t-191 -41.5q-171 0 -282 113.5t-111 297.5q0 155 72.5 289.5t197.5 214.5t270 80q114 0 198 -51t116 -133zM525 227q140 0 248 111.5t108 256.5q0 105 -65 173.5t-170 68.5q-144 0 -250 -113t-106 -257
q0 -106 65.5 -173t169.5 -67z" />
    <glyph glyph-name="Gdotaccent" unicode="&#x120;" horiz-adv-x="1609" 
d="M993 1566q-62 0 -98.5 44t-26.5 106q11 61 63.5 104.5t114.5 43.5q60 0 96 -43.5t25 -104.5q-10 -62 -61.5 -106t-112.5 -44zM723 -20q-275 0 -441.5 157.5t-166.5 428.5q0 135 37 264t110 240.5t173.5 196t236 133t289.5 48.5q207 0 357.5 -90t215.5 -252l-228 -101
q-41 114 -132.5 169.5t-219.5 55.5q-136 0 -250.5 -57.5t-189 -152t-115.5 -213t-41 -243.5q0 -176 103 -271t289 -95q179 0 314.5 93t193.5 270l-430 -7l36 201h666l-134 -755h-196l45 223q-189 -243 -522 -243z" />
    <glyph glyph-name="gdotaccent" unicode="&#x121;" horiz-adv-x="1238" 
d="M729 1208q-62 0 -101 44t-33 106q6 61 55 104.5t112 43.5q60 0 99.5 -43.5t32.5 -104.5q-7 -62 -56 -106t-109 -44zM948 1008h227l-167 -951q-48 -271 -202.5 -402.5t-391.5 -131.5q-203 0 -317 84t-147 235l204 72q25 -105 85.5 -153.5t167.5 -48.5q148 0 242 91.5
t121 253.5l21 127q-55 -69 -146 -110.5t-191 -41.5q-171 0 -282 113.5t-111 297.5q0 155 72.5 289.5t197.5 214.5t270 80q114 0 198 -51t116 -133zM525 227q140 0 248 111.5t108 256.5q0 105 -65 173.5t-170 68.5q-144 0 -250 -113t-106 -257q0 -106 65.5 -173t169.5 -67z
" />
    <glyph glyph-name="Gcommaaccent" unicode="&#x122;" horiz-adv-x="1609" 
d="M723 -20q-275 0 -441.5 157.5t-166.5 428.5q0 135 37 264t110 240.5t173.5 196t236 133t289.5 48.5q207 0 357.5 -90t215.5 -252l-228 -101q-41 114 -132.5 169.5t-219.5 55.5q-136 0 -250.5 -57.5t-189 -152t-115.5 -213t-41 -243.5q0 -176 103 -271t289 -95
q179 0 314.5 93t193.5 270l-430 -7l36 201h666l-134 -755h-196l45 223q-189 -243 -522 -243zM462 -569l-115 58l231 371h220z" />
    <glyph glyph-name="gcommaaccent" unicode="&#x123;" horiz-adv-x="1238" 
d="M1127 1480l-294 -320h-261l371 320h184zM948 1008h227l-167 -951q-48 -271 -202.5 -402.5t-391.5 -131.5q-203 0 -317 84t-147 235l204 72q25 -105 85.5 -153.5t167.5 -48.5q148 0 242 91.5t121 253.5l21 127q-55 -69 -146 -110.5t-191 -41.5q-171 0 -282 113.5
t-111 297.5q0 155 72.5 289.5t197.5 214.5t270 80q114 0 198 -51t116 -133zM525 227q140 0 248 111.5t108 256.5q0 105 -65 173.5t-170 68.5q-144 0 -250 -113t-106 -257q0 -106 65.5 -173t169.5 -67z" />
    <glyph glyph-name="Hbar" unicode="&#x126;" horiz-adv-x="1525" 
d="M1596 1176l-19 -109h-141l-189 -1067h-246l108 608h-656l-108 -608h-246l188 1067h-140l18 109h142l44 252h247l-45 -252h657l45 252h245l-45 -252h141zM1148 824l43 243h-657l-43 -243h657z" />
    <glyph glyph-name="hbar" unicode="&#x127;" horiz-adv-x="1157" 
d="M776 1027q133 0 210.5 -72t77.5 -199q0 -26 -8 -86l-120 -670h-235l114 646q5 33 5 54q0 70 -38.5 102.5t-103.5 32.5q-56 0 -108 -20.5t-98 -71t-68 -125.5l-109 -618h-235l209 1186h-138l27 156h139l34 194h236l-34 -194h287l-27 -156h-288l-55 -312q132 153 326 153z
" />
    <glyph glyph-name="Itilde" unicode="&#x128;" horiz-adv-x="623" 
d="M645 1559q-120 0 -174 115q-22 52 -71 52q-43 0 -75 -42.5t-44 -109.5h-132q23 124 96.5 202.5t173.5 78.5q119 0 173 -114q23 -52 73 -52q44 0 74.5 40.5t42.5 109.5h133q-23 -123 -95 -201.5t-175 -78.5zM99 0l252 1428h245l-252 -1428h-245z" />
    <glyph glyph-name="itilde" unicode="&#x129;" horiz-adv-x="551" 
d="M523 1156q-108 0 -154 100q-18 43 -57 43q-36 0 -62 -36t-36 -94h-124q20 111 85 181t154 70q108 0 153 -101q17 -42 60 -42q73 0 96 129h124q-19 -109 -83.5 -179.5t-155.5 -70.5zM61 0l179 1013h251l-180 -1013h-250z" />
    <glyph glyph-name="Imacron" unicode="&#x12a;" horiz-adv-x="623" 
d="M167 1566l26 150h658l-26 -150h-658zM99 0l252 1428h245l-252 -1428h-245z" />
    <glyph glyph-name="imacron" unicode="&#x12b;" horiz-adv-x="551" 
d="M70 1191l26 150h659l-27 -150h-658zM61 0l179 1013h251l-180 -1013h-250z" />
    <glyph glyph-name="Iogonek" unicode="&#x12e;" horiz-adv-x="623" 
d="M345 0q-198 -158 -209 -223q-4 -19 10.5 -28.5t47.5 -9.5q64 0 112 37l-29 -164q-64 -24 -135 -24q-87 0 -133 27t-37 77q19 106 264 308h-137l252 1428h245l-252 -1428h1z" />
    <glyph glyph-name="iogonek" unicode="&#x12f;" horiz-adv-x="551" 
d="M446 1511q60 0 99.5 -43.5t32.5 -104.5q-7 -62 -56 -106t-109 -44q-62 0 -101 44t-33 106q6 61 55 104.5t112 43.5zM61 0l179 1013h251l-180 -1013q-198 -158 -209 -223q-4 -19 10.5 -28.5t47.5 -9.5q64 0 112 37l-29 -164q-64 -24 -135 -24q-87 0 -133 27t-37 77
q19 106 264 308h-141z" />
    <glyph glyph-name="Idotaccent" unicode="&#x130;" horiz-adv-x="623" 
d="M498 1566q-62 0 -98.5 44t-26.5 106q11 61 63.5 104.5t114.5 43.5q60 0 96 -43.5t25 -104.5q-10 -62 -61.5 -106t-112.5 -44zM99 0l252 1428h245l-252 -1428h-245z" />
    <glyph glyph-name="dotlessi" unicode="&#x131;" horiz-adv-x="551" 
d="M61 0l179 1013h251l-180 -1013h-250z" />
    <glyph glyph-name="Kcommaaccent" unicode="&#x136;" horiz-adv-x="1360" 
d="M788 742l-1 -10l442 -732h-292l-372 640h-108l-113 -640h-245l252 1428h245l-101 -571h119l560 571h308zM208 -511l231 371h220l-336 -429z" />
    <glyph glyph-name="kcommaaccent" unicode="&#x137;" horiz-adv-x="1093" 
d="M1146 1008l-491 -470l350 -538h-280l-282 452h-64l-80 -452h-239l271 1536h239l-161 -914h72l386 386h279zM90 -511l231 371h220l-336 -429z" />
    <glyph glyph-name="Lacute" unicode="&#x139;" horiz-adv-x="940" 
d="M846 1831l-272 -265h-158l321 354zM386 219h467l-39 -219h-715l252 1428h245z" />
    <glyph glyph-name="lacute" unicode="&#x13a;" horiz-adv-x="538" 
d="M395 1687l321 354l110 -90l-273 -264h-158zM60 0l271 1536h239l-271 -1536h-239z" />
    <glyph glyph-name="Lcommaaccent" unicode="&#x13b;" horiz-adv-x="940" 
d="M386 219h467l-39 -219h-715l252 1428h245zM91 -511l231 371h220l-336 -429z" />
    <glyph glyph-name="lcommaaccent" unicode="&#x13c;" horiz-adv-x="538" 
d="M60 0l271 1536h239l-271 -1536h-239zM-73 -569l-115 58l231 371h220z" />
    <glyph glyph-name="Lcaron" unicode="&#x13d;" horiz-adv-x="1063" 
d="M1152 1433l-315 -643h-184l238 643h261zM596 1428l-210 -1209h467l-39 -219h-715l252 1428h245z" />
    <glyph glyph-name="lcaron" unicode="&#x13e;" horiz-adv-x="740" 
d="M60 0l271 1536h252l-271 -1536h-252zM615 894l125 642h258l-203 -642h-180z" />
    <glyph glyph-name="Lslash" unicode="&#x141;" horiz-adv-x="940" 
d="M386 219h467l-39 -219h-715l94 535l-193 -127l29 163l193 128l129 729h245l-95 -546l210 139l-29 -165l-209 -138z" />
    <glyph glyph-name="lslash" unicode="&#x142;" horiz-adv-x="538" 
d="M665 1061l-29 -165l-202 -133l-135 -763h-239l103 585l-209 -137l29 163l209 138l139 787h239l-107 -609z" />
    <glyph glyph-name="Nacute" unicode="&#x143;" horiz-adv-x="1590" 
d="M1331 1831l-272 -265h-158l321 354zM1319 1428h245l-252 -1428h-272l-505 1087l-192 -1087h-244l252 1428h270l508 -1081z" />
    <glyph glyph-name="nacute" unicode="&#x144;" horiz-adv-x="1158" 
d="M1040 1423l-273 -264h-158l321 354zM777 1027q134 0 211 -72t77 -199q0 -26 -8 -86l-120 -670h-237l116 646q5 33 5 53q0 136 -151 136q-86 0 -160.5 -56.5t-104.5 -167.5l-109 -611h-235l178 1008h236l-24 -133q132 152 326 152z" />
    <glyph glyph-name="Ncommaaccent" unicode="&#x145;" horiz-adv-x="1590" 
d="M1319 1428h245l-252 -1428h-272l-505 1087l-192 -1087h-244l252 1428h270l508 -1081zM340 -511l231 371h220l-336 -429z" />
    <glyph glyph-name="ncommaaccent" unicode="&#x146;" horiz-adv-x="1158" 
d="M777 1027q134 0 211 -72t77 -199q0 -26 -8 -86l-120 -670h-237l116 646q5 33 5 53q0 136 -151 136q-86 0 -160.5 -56.5t-104.5 -167.5l-109 -611h-235l178 1008h236l-24 -133q132 152 326 152zM120 -511l231 371h220l-336 -429z" />
    <glyph glyph-name="Ncaron" unicode="&#x147;" horiz-adv-x="1590" 
d="M1061 1566h-159l-169 298h157l107 -206l180 206h158zM1319 1428h245l-252 -1428h-272l-505 1087l-192 -1087h-244l252 1428h270l508 -1081z" />
    <glyph glyph-name="ncaron" unicode="&#x148;" horiz-adv-x="1158" 
d="M775 1187h-158l-169 298h157l107 -206l179 206h159zM777 1027q134 0 211 -72t77 -199q0 -26 -8 -86l-120 -670h-237l116 646q5 33 5 53q0 136 -151 136q-86 0 -160.5 -56.5t-104.5 -167.5l-109 -611h-235l178 1008h236l-24 -133q132 152 326 152z" />
    <glyph glyph-name="Eng" unicode="&#x14a;" horiz-adv-x="1629" 
d="M1604 1433l-218 -1237l1 1l-36 -197q-38 -220 -195 -343t-386 -123l33 196q113 0 187.5 71t67.5 199l-511 1081l-191 -1081h-257l253 1433h289l516 -1075l189 1075h258z" />
    <glyph glyph-name="eng" unicode="&#x14b;" horiz-adv-x="1176" 
d="M788 1033q164 0 241 -97t46 -269l-146 -829q-27 -147 -119.5 -231t-234.5 -84h-167l31 179h84q57 0 101 36.5t55 103.5l139 783q36 198 -139 198q-98 0 -171 -59.5t-93 -167.5l-106 -596h-248l179 1013h249l-22 -127q134 147 321 147z" />
    <glyph glyph-name="Omacron" unicode="&#x14c;" horiz-adv-x="1624" 
d="M671 1566l26 150h658l-26 -150h-658zM736 -20q-280 0 -449.5 159.5t-169.5 432.5q0 168 60 325.5t166.5 280t268 196.5t351.5 74q279 0 449 -159t170 -431q0 -134 -37.5 -263t-111.5 -240t-174.5 -195t-235.5 -132t-287 -48zM746 209q106 0 201 35.5t165.5 97t122 142
t78 173t26.5 186.5q0 178 -106 277.5t-280 99.5q-131 0 -244.5 -54.5t-188.5 -144t-118 -203t-43 -232.5q0 -178 106.5 -277.5t280.5 -99.5z" />
    <glyph glyph-name="omacron" unicode="&#x14d;" horiz-adv-x="1202" 
d="M391 1185l26 150h659l-27 -150h-658zM523 -20q-209 0 -336 114.5t-127 312.5q0 121 42.5 232.5t120 198t195.5 138t259 51.5q211 0 337.5 -114t126.5 -311q0 -122 -43 -233.5t-121 -198.5t-196 -138.5t-258 -51.5zM529 171q85 0 158.5 38t120 99t73 135t26.5 148
q0 113 -65 180t-175 67q-85 0 -157 -38.5t-118 -99.5t-71.5 -134.5t-25.5 -147.5q0 -115 63 -181t171 -66z" />
    <glyph glyph-name="Ohungarumlaut" unicode="&#x150;" horiz-adv-x="1624" 
d="M735 1566l321 354l109 -89l-272 -265h-158zM1106 1566l322 354l109 -89l-272 -265h-159zM736 -20q-280 0 -449.5 159.5t-169.5 432.5q0 168 60 325.5t166.5 280t268 196.5t351.5 74q279 0 449 -159t170 -431q0 -134 -37.5 -263t-111.5 -240t-174.5 -195t-235.5 -132
t-287 -48zM746 209q106 0 201 35.5t165.5 97t122 142t78 173t26.5 186.5q0 178 -106 277.5t-280 99.5q-131 0 -244.5 -54.5t-188.5 -144t-118 -203t-43 -232.5q0 -178 106.5 -277.5t280.5 -99.5z" />
    <glyph glyph-name="ohungarumlaut" unicode="&#x151;" horiz-adv-x="1202" 
d="M449 1158l321 354l110 -90l-273 -264h-158zM820 1158l322 354l110 -90l-273 -264h-159zM523 -20q-209 0 -336 114.5t-127 312.5q0 121 42.5 232.5t120 198t195.5 138t259 51.5q211 0 337.5 -114t126.5 -311q0 -122 -43 -233.5t-121 -198.5t-196 -138.5t-258 -51.5z
M529 171q85 0 158.5 38t120 99t73 135t26.5 148q0 113 -65 180t-175 67q-85 0 -157 -38.5t-118 -99.5t-71.5 -134.5t-25.5 -147.5q0 -115 63 -181t171 -66z" />
    <glyph glyph-name="OE" unicode="&#x152;" horiz-adv-x="1968" 
d="M722 0q-311 0 -460.5 136t-149.5 387q0 95 14 186t45 181.5t78 169.5t116.5 147t156.5 116.5t202.5 76t249.5 27.5h1046l-41 -231h-584l-65 -367h499l-41 -232h-499l-64 -366h584l-41 -231h-1046zM775 231h191l170 965h-191q-128 0 -228 -38.5t-161.5 -100t-101.5 -147
t-55 -172t-15 -182.5q0 -162 93.5 -243.5t297.5 -81.5z" />
    <glyph glyph-name="oe" unicode="&#x153;" horiz-adv-x="1978" 
d="M1501 1028q194 0 307.5 -99.5t113.5 -291.5q0 -63 -11 -124l-12 -52h-769q-3 -33 -3 -67q0 -110 63 -167t166 -57q87 0 162.5 43.5t124.5 119.5l211 -50q-76 -144 -209 -223.5t-290 -79.5q-134 0 -234 46t-156 132q-175 -178 -442 -178q-209 0 -336 114.5t-127 312.5
q0 121 42.5 232.5t120 198t195.5 138t259 51.5q132 0 233.5 -46t160.5 -132q166 179 430 179zM1499 859q-120 0 -203.5 -64t-126.5 -172h529q3 23 3 42q0 96 -54.5 145t-147.5 49zM529 171q85 0 158.5 38t120 99t73 135t26.5 148q0 113 -65 180t-175 67q-85 0 -157 -38.5
t-118 -99.5t-71.5 -134.5t-25.5 -147.5q0 -115 63 -181t171 -66z" />
    <glyph glyph-name="Racute" unicode="&#x154;" horiz-adv-x="1281" 
d="M1172 1831l-272 -265h-158l321 354zM1228 1087q0 -74 -21.5 -143.5t-64.5 -132.5t-117.5 -108t-171.5 -60l295 -643h-271l-270 636h-150l-112 -636h-246l252 1428h490q194 0 290.5 -93t96.5 -248zM560 1220l-75 -422h209q68 0 122.5 18.5t86.5 46t53 63t29 67t8 61.5
q0 166 -209 166h-224z" />
    <glyph glyph-name="racute" unicode="&#x155;" horiz-adv-x="711" 
d="M810 1423l-273 -264h-158l321 354zM440 842q51 75 146.5 125.5t199.5 51.5l-43 -230q-146 0 -239 -74t-119 -226l-86 -489h-238l178 1008h229z" />
    <glyph glyph-name="Rcommaaccent" unicode="&#x156;" horiz-adv-x="1281" 
d="M1228 1087q0 -74 -21.5 -143.5t-64.5 -132.5t-117.5 -108t-171.5 -60l295 -643h-271l-270 636h-150l-112 -636h-246l252 1428h490q194 0 290.5 -93t96.5 -248zM560 1220l-75 -422h209q68 0 122.5 18.5t86.5 46t53 63t29 67t8 61.5q0 166 -209 166h-224zM180 -511l231 371
h220l-336 -429z" />
    <glyph glyph-name="rcommaaccent" unicode="&#x157;" horiz-adv-x="711" 
d="M440 842q51 75 146.5 125.5t199.5 51.5l-43 -230q-146 0 -239 -74t-119 -226l-86 -489h-238l178 1008h229zM-187 -511l231 371h220l-336 -429z" />
    <glyph glyph-name="Rcaron" unicode="&#x158;" horiz-adv-x="1281" 
d="M902 1566h-159l-169 298h157l107 -206l180 206h158zM1228 1087q0 -74 -21.5 -143.5t-64.5 -132.5t-117.5 -108t-171.5 -60l295 -643h-271l-270 636h-150l-112 -636h-246l252 1428h490q194 0 290.5 -93t96.5 -248zM560 1220l-75 -422h209q68 0 122.5 18.5t86.5 46t53 63
t29 67t8 61.5q0 166 -209 166h-224z" />
    <glyph glyph-name="rcaron" unicode="&#x159;" horiz-adv-x="711" 
d="M545 1187h-158l-169 298h157l107 -206l179 206h159zM440 842q51 75 146.5 125.5t199.5 51.5l-43 -230q-146 0 -239 -74t-119 -226l-86 -489h-238l178 1008h229z" />
    <glyph glyph-name="Sacute" unicode="&#x15a;" horiz-adv-x="1262" 
d="M739 1566l321 354l109 -89l-272 -265h-158zM594 -20q-155 0 -276.5 48t-192 141t-71.5 217l259 44q5 -114 84 -179.5t212 -65.5q130 0 212.5 61t82.5 158q0 43 -16.5 77.5t-41 56.5t-66.5 42t-77.5 32t-90.5 29q-9 3 -14 4q-49 15 -82 26t-77 29.5t-73 37.5t-61 47
t-50.5 60t-30.5 76t-12 95q0 126 69.5 225t190 153t269.5 54q100 0 189 -22t162 -65.5t117 -116.5t48 -166l-243 -45q-4 107 -77 158.5t-187 51.5q-124 0 -207.5 -59t-83.5 -146q0 -25 5 -46t17.5 -39t24 -31t35 -26t39 -21t47.5 -18.5t49.5 -16t55.5 -16.5q53 -15 87.5 -26
t83.5 -31t81.5 -39.5t68 -50t56.5 -65t35 -82t14 -102.5q0 -207 -158.5 -327.5t-405.5 -120.5z" />
    <glyph glyph-name="sacute" unicode="&#x15b;" horiz-adv-x="946" 
d="M509 1159l321 354l110 -90l-273 -264h-158zM401 -20q-176 0 -275.5 76t-101.5 212l219 42q-3 -79 44 -122.5t127 -43.5t135 42t55 117q0 26 -10 46t-24 33t-44 25t-54 19.5t-71 19.5q-49 13 -83 25t-72.5 33t-62 46t-39 63.5t-15.5 86.5q0 103 56 178t147 111.5t205 36.5
q101 0 179.5 -27.5t129 -90.5t51.5 -154l-199 -31q1 73 -43.5 107.5t-113.5 34.5q-79 0 -133.5 -40t-54.5 -108q0 -36 27 -60t52.5 -33t88.5 -25q17 -5 26 -7q51 -13 88.5 -26t77.5 -35t65 -49t41.5 -68t16.5 -91q0 -110 -58.5 -188.5t-155.5 -116.5t-221 -38z" />
    <glyph glyph-name="Scedilla" unicode="&#x15e;" horiz-adv-x="1262" 
d="M732 824q53 -15 87.5 -26t83.5 -31t81.5 -39.5t68 -50t56.5 -65t35 -82t14 -102.5q0 -207 -158.5 -327.5t-405.5 -120.5h-2l-77 -108q34 6 49 6q86 0 132 -53.5t31 -137.5q-16 -92 -90 -155.5t-166 -63.5q-81 0 -139 41t-74 103l121 42q12 -31 42.5 -49.5t65.5 -18.5
q42 0 77 28t43 73q9 46 -16.5 72t-71.5 26q-45 0 -81 -27l-85 57l122 173q-190 26 -305 131.5t-116 266.5l259 44q5 -114 84 -179.5t212 -65.5q130 0 212.5 61t82.5 158q0 43 -16.5 77.5t-41 56.5t-66.5 42t-77.5 32t-90.5 29q-9 3 -14 4q-49 15 -82 26t-77 29.5t-73 37.5
t-61 47t-50.5 60t-30.5 76t-12 95q0 126 69.5 225t190 153t269.5 54q100 0 189 -22t162 -65.5t117 -116.5t48 -166l-243 -45q-4 107 -77 158.5t-187 51.5q-124 0 -207.5 -59t-83.5 -146q0 -25 5 -46t17.5 -39t24 -31t35 -26t39 -21t47.5 -18.5t49.5 -16t55.5 -16.5z" />
    <glyph glyph-name="scedilla" unicode="&#x15f;" horiz-adv-x="946" 
d="M547 592q51 -13 88.5 -26t77.5 -35t65 -49t41.5 -68t16.5 -91q0 -156 -111 -244.5t-289 -97.5l-77 -108q34 6 49 6q86 0 132 -53.5t31 -137.5q-16 -92 -90 -155.5t-166 -63.5q-81 0 -139 41t-74 103l121 42q12 -31 42.5 -49.5t65.5 -18.5q42 0 77 28t43 73q9 46 -16.5 72
t-71.5 26q-45 0 -81 -27l-85 57l120 169q-138 17 -215 91t-78 192l219 42q-3 -79 44 -122.5t127 -43.5t135 42t55 117q0 26 -10 46t-24 33t-44 25t-54 19.5t-71 19.5q-49 13 -83 25t-72.5 33t-62 46t-39 63.5t-15.5 86.5q0 103 56 178t147 111.5t205 36.5q101 0 179.5 -27.5
t129 -90.5t51.5 -154l-199 -31q1 73 -43.5 107.5t-113.5 34.5q-79 0 -133.5 -40t-54.5 -108q0 -36 27 -60t52.5 -33t88.5 -25q17 -5 26 -7z" />
    <glyph glyph-name="Scaron" unicode="&#x160;" horiz-adv-x="1262" 
d="M740 1566l-169 298h157l107 -206l180 206h158l-274 -298h-159zM594 -20q-155 0 -276.5 48t-192 141t-71.5 217l259 44q5 -114 84 -179.5t212 -65.5q130 0 212.5 61t82.5 158q0 43 -16.5 77.5t-41 56.5t-66.5 42t-77.5 32t-90.5 29q-9 3 -14 4q-49 15 -82 26t-77 29.5
t-73 37.5t-61 47t-50.5 60t-30.5 76t-12 95q0 126 69.5 225t190 153t269.5 54q100 0 189 -22t162 -65.5t117 -116.5t48 -166l-243 -45q-4 107 -77 158.5t-187 51.5q-124 0 -207.5 -59t-83.5 -146q0 -25 5 -46t17.5 -39t24 -31t35 -26t39 -21t47.5 -18.5t49.5 -16t55.5 -16.5
q53 -15 87.5 -26t83.5 -31t81.5 -39.5t68 -50t56.5 -65t35 -82t14 -102.5q0 -207 -158.5 -327.5t-405.5 -120.5z" />
    <glyph glyph-name="scaron" unicode="&#x161;" horiz-adv-x="946" 
d="M517 1187l-169 298h157l107 -206l179 206h159l-275 -298h-158zM401 -20q-176 0 -275.5 76t-101.5 212l219 42q-3 -79 44 -122.5t127 -43.5t135 42t55 117q0 26 -10 46t-24 33t-44 25t-54 19.5t-71 19.5q-49 13 -83 25t-72.5 33t-62 46t-39 63.5t-15.5 86.5q0 103 56 178
t147 111.5t205 36.5q101 0 179.5 -27.5t129 -90.5t51.5 -154l-199 -31q1 73 -43.5 107.5t-113.5 34.5q-79 0 -133.5 -40t-54.5 -108q0 -36 27 -60t52.5 -33t88.5 -25q17 -5 26 -7q51 -13 88.5 -26t77.5 -35t65 -49t41.5 -68t16.5 -91q0 -110 -58.5 -188.5t-155.5 -116.5
t-221 -38z" />
    <glyph glyph-name="uni0162" unicode="&#x162;" horiz-adv-x="1018" 
d="M542 0h-59l-92 -128q34 6 49 6q86 0 132 -53.5t31 -137.5q-16 -92 -90 -155.5t-166 -63.5q-81 0 -139 41t-74 103l121 42q12 -31 42.5 -49.5t65.5 -18.5q42 0 77 28t43 73q9 46 -16.5 72t-71.5 26q-45 0 -81 -27l-85 57l131 185h-61l213 1210h-353l39 218h948l-39 -218
h-351z" />
    <glyph glyph-name="uni0163" unicode="&#x163;" horiz-adv-x="733" 
d="M506 825l-90 -511q-3 -16 -3 -41q0 -91 99 -91h100l-33 -182h-55l-92 -128q34 6 49 6q86 0 132 -53.5t31 -137.5q-16 -92 -90 -155.5t-166 -63.5q-81 0 -139 41t-74 103l121 42q12 -31 42.5 -49.5t65.5 -18.5q42 0 77 28t43 73q9 46 -16.5 72t-71.5 26q-45 0 -81 -27
l-85 57l131 185q-110 5 -171 67t-61 168q0 34 7 70l93 520h-203l33 183h61q73 0 124.5 42.5t66.5 120.5l28 167h218l-58 -330h218l-32 -183h-219z" />
    <glyph glyph-name="Tcaron" unicode="&#x164;" horiz-adv-x="1018" 
d="M775 1566h-159l-169 298h157l107 -206l180 206h158zM1146 1428l-39 -218h-351l-214 -1210h-243l213 1210h-353l39 218h948z" />
    <glyph glyph-name="tcaron" unicode="&#x165;" horiz-adv-x="748" 
d="M737 1201l125 641h258l-203 -641h-180zM429 0q-121 0 -189 63.5t-68 176.5q0 42 7 72l90 508h-202l35 193h59q75 0 127.5 43t67.5 123l28 164h229l-57 -330h216l-34 -193h-217l-89 -499q-3 -24 -3 -41q0 -88 99 -88h99l-34 -192h-164z" />
    <glyph glyph-name="Tbar" unicode="&#x166;" horiz-adv-x="1018" 
d="M1107 1210h-351l-74 -418h209l-27 -156h-210l-112 -636h-243l112 636h-209l27 156h209l74 418h-353l39 218h948z" />
    <glyph glyph-name="tbar" unicode="&#x167;" horiz-adv-x="733" 
d="M725 825h-219l-43 -242h158l-23 -156h-162l-20 -113q-3 -16 -3 -41q0 -91 99 -91h100l-33 -182h-158q-119 0 -185.5 62t-66.5 173q0 34 7 70l22 122h-152l22 156h158l43 242h-203l33 183h61q73 0 124.5 42.5t66.5 120.5l28 167h218l-58 -330h218z" />
    <glyph glyph-name="Utilde" unicode="&#x168;" horiz-adv-x="1405" 
d="M1036 1559q-120 0 -174 115q-22 52 -71 52q-43 0 -75 -42.5t-44 -109.5h-132q23 124 96.5 202.5t173.5 78.5q119 0 173 -114q23 -52 73 -52q44 0 74.5 40.5t42.5 109.5h133q-23 -123 -95 -201.5t-175 -78.5zM623 -20q-216 0 -347 106.5t-131 301.5q0 49 11 109l165 931
h245l-160 -914q-9 -50 -9 -91q0 -114 62.5 -168.5t170.5 -54.5q138 0 240 84t131 246l159 898h246l-167 -948q-30 -165 -121 -279.5t-217 -167.5t-278 -53z" />
    <glyph glyph-name="utilde" unicode="&#x169;" horiz-adv-x="1158" 
d="M616 1294q-36 0 -62 -36t-36 -94h-124q20 111 85 181t154 70q108 0 153 -101q17 -42 60 -42q73 0 96 129h124q-19 -109 -83.5 -179.5t-155.5 -70.5q-108 0 -154 100q-18 43 -57 43zM860 1008h236l-178 -1008h-223l19 144q-63 -77 -148.5 -120.5t-183.5 -43.5
q-136 0 -213 72t-77 201q0 35 8 85l119 670h236l-111 -624q-6 -36 -6 -62q0 -73 39.5 -107.5t105.5 -34.5q102 0 177 63.5t95 175.5h2z" />
    <glyph glyph-name="Umacron" unicode="&#x16a;" horiz-adv-x="1405" 
d="M558 1566l26 150h658l-26 -150h-658zM623 -20q-216 0 -347 106.5t-131 301.5q0 49 11 109l165 931h245l-160 -914q-9 -50 -9 -91q0 -114 62.5 -168.5t170.5 -54.5q138 0 240 84t131 246l159 898h246l-167 -948q-30 -165 -121 -279.5t-217 -167.5t-278 -53z" />
    <glyph glyph-name="umacron" unicode="&#x16b;" horiz-adv-x="1158" 
d="M1059 1336l-27 -150h-658l26 150h659zM860 1008h236l-178 -1008h-223l19 144q-63 -77 -148.5 -120.5t-183.5 -43.5q-136 0 -213 72t-77 201q0 35 8 85l119 670h236l-111 -624q-6 -36 -6 -62q0 -73 39.5 -107.5t105.5 -34.5q102 0 177 63.5t95 175.5h2z" />
    <glyph glyph-name="Uring" unicode="&#x16e;" horiz-adv-x="1405" 
d="M898 1566q-89 0 -144.5 53.5t-58.5 138.5q-4 105 73 185.5t190 80.5q90 0 143.5 -53t55.5 -137q4 -105 -72 -186.5t-187 -81.5zM909 1676q62 0 101.5 41.5t39.5 97.5q0 45 -28 74.5t-75 29.5q-60 0 -100 -44.5t-40 -100.5q0 -45 27 -71.5t75 -26.5zM623 -20
q-216 0 -347 106.5t-131 301.5q0 49 11 109l165 931h245l-160 -914q-9 -50 -9 -91q0 -114 62.5 -168.5t170.5 -54.5q138 0 240 84t131 246l159 898h246l-167 -948q-30 -165 -121 -279.5t-217 -167.5t-278 -53z" />
    <glyph glyph-name="uring" unicode="&#x16f;" horiz-adv-x="1158" 
d="M707 1127q-95 0 -155.5 68t-51.5 163q11 94 86 161t171 67q93 0 152.5 -67t48.5 -161q-9 -95 -83 -163t-168 -68zM612 1358q-5 -54 25.5 -87.5t81.5 -33.5t89 34t43 87q5 49 -25.5 85.5t-80.5 36.5t-89 -36.5t-44 -85.5zM860 1008h236l-178 -1008h-223l19 144
q-63 -77 -148.5 -120.5t-183.5 -43.5q-136 0 -213 72t-77 201q0 35 8 85l119 670h236l-111 -624q-6 -36 -6 -62q0 -73 39.5 -107.5t105.5 -34.5q102 0 177 63.5t95 175.5h2z" />
    <glyph glyph-name="Uhungarumlaut" unicode="&#x170;" horiz-adv-x="1405" 
d="M622 1566l321 354l109 -89l-272 -265h-158zM993 1566l322 354l109 -89l-272 -265h-159zM623 -20q-216 0 -347 106.5t-131 301.5q0 49 11 109l165 931h245l-160 -914q-9 -50 -9 -91q0 -114 62.5 -168.5t170.5 -54.5q138 0 240 84t131 246l159 898h246l-167 -948
q-30 -165 -121 -279.5t-217 -167.5t-278 -53z" />
    <glyph glyph-name="uhungarumlaut" unicode="&#x171;" horiz-adv-x="1158" 
d="M863 1423l-273 -264h-158l321 354zM962 1159h-159l322 354l110 -90zM757 419l103 589h236l-178 -1008h-223l19 144q-63 -77 -148.5 -120.5t-183.5 -43.5q-136 0 -213 72t-77 201q0 35 8 85l119 670h236l-111 -624q-6 -36 -6 -62q0 -73 39.5 -107.5t105.5 -34.5
q102 0 177 63.5t95 175.5h2z" />
    <glyph glyph-name="Uogonek" unicode="&#x172;" horiz-adv-x="1405" 
d="M1160 1428h246l-167 -948q-31 -175 -129 -291t-243 -168q-163 -136 -172 -193q-4 -19 10.5 -28.5t47.5 -9.5q64 0 112 37l-29 -164q-64 -24 -135 -24q-87 0 -133 27t-37 77q16 87 188 243q-47 -6 -96 -6q-216 0 -347 106.5t-131 301.5q0 49 11 109l165 931h245l-160 -914
q-9 -50 -9 -91q0 -114 62.5 -168.5t170.5 -54.5q138 0 240 84t131 246z" />
    <glyph glyph-name="uogonek" unicode="&#x173;" horiz-adv-x="1158" 
d="M918 0q-198 -158 -209 -223q-4 -19 10.5 -28.5t47.5 -9.5q64 0 112 37l-29 -164q-64 -24 -135 -24q-87 0 -133 27t-37 77q19 106 264 308h-114l19 144q-63 -77 -148.5 -120.5t-183.5 -43.5q-136 0 -213 72t-77 201q0 35 8 85l119 670h236l-111 -624q-6 -36 -6 -62
q0 -73 39.5 -107.5t105.5 -34.5q102 0 177 63.5t95 175.5h2l103 589h236z" />
    <glyph glyph-name="Wcircumflex" unicode="&#x174;" horiz-adv-x="2090" 
d="M1085 1566h-157l274 298h158l170 -298h-159l-107 205zM343 0l-138 1428h250l105 -1123l536 1123h212l133 -1123l508 1123h260l-640 -1428h-308l-131 979l-480 -979h-307z" />
    <glyph glyph-name="wcircumflex" unicode="&#x175;" horiz-adv-x="1662" 
d="M994 1393l-179 -206h-158l275 298h158l169 -298h-158zM1489 1008h249l-528 -1009h-218l-124 713l-378 -713h-220l-167 1009h242l101 -705l378 705h182l128 -706z" />
    <glyph glyph-name="Ycircumflex" unicode="&#x176;" horiz-adv-x="1221" 
d="M829 1771l-179 -205h-157l274 298h158l170 -298h-159zM1367 1428l-606 -752l-119 -676h-248l122 683l-338 745h264l226 -529l414 529h285z" />
    <glyph glyph-name="ycircumflex" unicode="&#x177;" horiz-adv-x="1044" 
d="M676 1393l-179 -206h-158l275 298h158l169 -298h-158zM878 1008h248l-866 -1482h-246l310 518l-229 964h253l133 -712z" />
    <glyph glyph-name="Ydieresis" unicode="&#x178;" horiz-adv-x="1221" 
d="M595 1566q-53 0 -85.5 38.5t-23.5 92.5q10 54 55.5 91.5t99.5 37.5q53 0 85 -38t22 -91q-9 -54 -54.5 -92.5t-98.5 -38.5zM995 1566q-54 0 -85.5 38.5t-22.5 92.5q10 54 55 91.5t99 37.5t85 -37.5t21 -91.5q-9 -54 -54 -92.5t-98 -38.5zM1367 1428l-606 -752l-119 -676
h-248l122 683l-338 745h264l226 -529l414 529h285z" />
    <glyph glyph-name="Zacute" unicode="&#x179;" horiz-adv-x="1209" 
d="M1159 1831l-272 -265h-158l321 354zM1274 1428l-32 -197l-909 -1012h746l-38 -219h-1049l33 196l912 1014h-730l39 218h1028z" />
    <glyph glyph-name="zacute" unicode="&#x17a;" horiz-adv-x="909" 
d="M932 1423l-273 -264h-158l321 354zM953 1008l-620 -823h463l-32 -185h-821l617 823h-435l33 185h795z" />
    <glyph glyph-name="Zdotaccent" unicode="&#x17b;" horiz-adv-x="1209" 
d="M812 1566q-62 0 -98.5 44t-26.5 106q11 61 63.5 104.5t114.5 43.5q60 0 96 -43.5t25 -104.5q-10 -62 -61.5 -106t-112.5 -44zM1274 1428l-32 -197l-909 -1012h746l-38 -219h-1049l33 196l912 1014h-730l39 218h1028z" />
    <glyph glyph-name="zdotaccent" unicode="&#x17c;" horiz-adv-x="909" 
d="M603 1208q-62 0 -101 44t-33 106q6 61 55 104.5t112 43.5q60 0 99.5 -43.5t32.5 -104.5q-7 -62 -56 -106t-109 -44zM953 1008l-620 -823h463l-32 -185h-821l617 823h-435l33 185h795z" />
    <glyph glyph-name="Zcaron" unicode="&#x17d;" horiz-adv-x="1209" 
d="M889 1566h-159l-169 298h157l107 -206l180 206h158zM1274 1428l-32 -197l-909 -1012h746l-38 -219h-1049l33 196l912 1014h-730l39 218h1028z" />
    <glyph glyph-name="zcaron" unicode="&#x17e;" horiz-adv-x="909" 
d="M667 1187h-158l-169 298h157l107 -206l179 206h159zM953 1008l-620 -823h463l-32 -185h-821l617 823h-435l33 185h795z" />
    <glyph glyph-name="florin" unicode="&#x192;" horiz-adv-x="1027" 
d="M-29 -409l411 1226h-172l66 196h173l69 213q45 142 174 236t268 94q50 0 92.5 -13t59.5 -29l-38 -171q-27 28 -88 28q-83 0 -151.5 -54t-96.5 -140l-57 -164h280l-64 -196h-280l-413 -1226h-233z" />
    <glyph glyph-name="Ohorn" unicode="&#x1a0;" horiz-adv-x="1624" 
d="M1659 1519h130l-27 -147q-22 -124 -81 -178t-139 -54q-14 0 -21 1q61 -127 61 -283q0 -134 -37.5 -263t-111.5 -240t-174.5 -195t-235.5 -132t-287 -48q-280 0 -449.5 159.5t-169.5 432.5q0 168 60 325.5t166.5 280t268 196.5t351.5 74q288 0 457 -167l2 3q49 -28 95 -28
q54 0 80.5 32.5t39.5 111.5zM746 209q106 0 201 35.5t165.5 97t122 142t78 173t26.5 186.5q0 178 -106 277.5t-280 99.5q-131 0 -244.5 -54.5t-188.5 -144t-118 -203t-43 -232.5q0 -178 106.5 -277.5t280.5 -99.5z" />
    <glyph glyph-name="ohorn" unicode="&#x1a1;" horiz-adv-x="1202" 
d="M1224 1165h130l-27 -147q-22 -124 -81 -178t-139 -54h-2q36 -81 36 -184q0 -122 -43 -233.5t-121 -198.5t-196 -138.5t-258 -51.5q-209 0 -336 114.5t-127 312.5q0 121 42.5 232.5t120 198t195.5 138t259 51.5q204 0 330 -107q39 -18 75 -18q54 0 80.5 32.5t39.5 111.5z
M529 171q85 0 158.5 38t120 99t73 135t26.5 148q0 113 -65 180t-175 67q-85 0 -157 -38.5t-118 -99.5t-71.5 -134.5t-25.5 -147.5q0 -115 63 -181t171 -66z" />
    <glyph glyph-name="Uhorn" unicode="&#x1af;" horiz-adv-x="1405" 
d="M1589 1582h130l-27 -147q-22 -124 -81 -178t-139 -54q-48 0 -102 20l-131 -743q-30 -165 -121 -279.5t-217 -167.5t-278 -53q-216 0 -347 106.5t-131 301.5q0 49 11 109l165 931h245l-160 -914q-9 -50 -9 -91q0 -114 62.5 -168.5t170.5 -54.5q138 0 240 84t131 246
l159 898h246l-17 -98q29 -11 58 -11q54 0 80.5 32.5t39.5 111.5z" />
    <glyph glyph-name="uhorn" unicode="&#x1b0;" horiz-adv-x="1158" 
d="M1289 1162h130l-27 -147q-22 -124 -81 -178t-139 -54q-52 0 -112 23l-142 -806h-223l19 144q-63 -77 -148.5 -120.5t-183.5 -43.5q-136 0 -213 72t-77 201q0 35 8 85l119 670h236l-111 -624q-6 -36 -6 -62q0 -73 39.5 -107.5t105.5 -34.5q102 0 177 63.5t95 175.5h2
l103 589h236l-17 -94q34 -15 68 -15q54 0 80.5 32.5t39.5 111.5z" />
    <glyph glyph-name="uni01CD" unicode="&#x1cd;" horiz-adv-x="1412" 
d="M972 1566h-159l-169 298h157l107 -206l180 206h158zM1042 0l-56 316h-621l-168 -316h-256l777 1428h298l276 -1428h-250zM476 525h473l-119 667z" />
    <glyph glyph-name="uni01CE" unicode="&#x1ce;" horiz-adv-x="1265" 
d="M832 1192h-158l-169 298h157l107 -206l179 206h159zM966 1008h236l-178 -1008h-215l13 153q-57 -84 -151 -130t-201 -46q-181 0 -295.5 115t-114.5 313q0 92 26 182t75.5 169t117 140t157 96t187.5 35q115 0 199 -49.5t116 -133.5zM537 177q80 0 150.5 37t116.5 95.5
t72.5 127.5t26.5 135q0 112 -65 184.5t-177 72.5q-106 0 -190.5 -61t-128 -152t-43.5 -188q0 -117 65 -184t173 -67z" />
    <glyph glyph-name="uni01CF" unicode="&#x1cf;" horiz-adv-x="623" 
d="M416 1566l-169 298h157l107 -206l180 206h158l-274 -298h-159zM99 0l252 1428h245l-252 -1428h-245z" />
    <glyph glyph-name="uni01D0" unicode="&#x1d0;" horiz-adv-x="551" 
d="M319 1192l-169 298h157l107 -206l179 206h159l-275 -298h-158zM61 0l179 1013h251l-180 -1013h-250z" />
    <glyph glyph-name="uni01D1" unicode="&#x1d1;" horiz-adv-x="1624" 
d="M920 1566l-169 298h157l107 -206l180 206h158l-274 -298h-159zM736 -20q-280 0 -449.5 159.5t-169.5 432.5q0 168 60 325.5t166.5 280t268 196.5t351.5 74q279 0 449 -159t170 -431q0 -134 -37.5 -263t-111.5 -240t-174.5 -195t-235.5 -132t-287 -48zM746 209
q106 0 201 35.5t165.5 97t122 142t78 173t26.5 186.5q0 178 -106 277.5t-280 99.5q-131 0 -244.5 -54.5t-188.5 -144t-118 -203t-43 -232.5q0 -178 106.5 -277.5t280.5 -99.5z" />
    <glyph glyph-name="uni01D2" unicode="&#x1d2;" horiz-adv-x="1202" 
d="M640 1186l-169 298h157l107 -206l179 206h159l-275 -298h-158zM523 -20q-209 0 -336 114.5t-127 312.5q0 121 42.5 232.5t120 198t195.5 138t259 51.5q211 0 337.5 -114t126.5 -311q0 -122 -43 -233.5t-121 -198.5t-196 -138.5t-258 -51.5zM529 171q85 0 158.5 38t120 99
t73 135t26.5 148q0 113 -65 180t-175 67q-85 0 -157 -38.5t-118 -99.5t-71.5 -134.5t-25.5 -147.5q0 -115 63 -181t171 -66z" />
    <glyph glyph-name="uni01D3" unicode="&#x1d3;" horiz-adv-x="1405" 
d="M807 1566l-169 298h157l107 -206l180 206h158l-274 -298h-159zM623 -20q-216 0 -347 106.5t-131 301.5q0 49 11 109l165 931h245l-160 -914q-9 -50 -9 -91q0 -114 62.5 -168.5t170.5 -54.5q138 0 240 84t131 246l159 898h246l-167 -948q-30 -165 -121 -279.5t-217 -167.5
t-278 -53z" />
    <glyph glyph-name="uni01D4" unicode="&#x1d4;" horiz-adv-x="1158" 
d="M781 1187h-158l-169 298h157l107 -206l179 206h159zM860 1008h236l-178 -1008h-223l19 144q-63 -77 -148.5 -120.5t-183.5 -43.5q-136 0 -213 72t-77 201q0 35 8 85l119 670h236l-111 -624q-6 -36 -6 -62q0 -73 39.5 -107.5t105.5 -34.5q102 0 177 63.5t95 175.5h2z" />
    <glyph glyph-name="uni01D5" unicode="&#x1d5;" horiz-adv-x="1405" 
d="M628 1964l26 150h658l-26 -150h-658zM688 1566q-53 0 -85.5 38.5t-23.5 92.5q10 54 55.5 91.5t99.5 37.5q53 0 85 -38t22 -91q-9 -54 -54.5 -92.5t-98.5 -38.5zM1088 1566q-54 0 -85.5 38.5t-22.5 92.5q10 54 55 91.5t99 37.5t85 -37.5t21 -91.5q-9 -54 -54 -92.5
t-98 -38.5zM623 -20q-216 0 -347 106.5t-131 301.5q0 49 11 109l165 931h245l-160 -914q-9 -50 -9 -91q0 -114 62.5 -168.5t170.5 -54.5q138 0 240 84t131 246l159 898h246l-167 -948q-30 -165 -121 -279.5t-217 -167.5t-278 -53z" />
    <glyph glyph-name="uni01D6" unicode="&#x1d6;" horiz-adv-x="1158" 
d="M486 1822h659l-27 -150h-658zM512 1208q-62 0 -102 44t-33 106q7 61 56 104.5t111 43.5q61 0 99.5 -43.5t32.5 -104.5q-6 -62 -55 -106t-109 -44zM1088 1358q-6 -62 -55 -106t-109 -44q-62 0 -102 44t-33 106q7 61 56 104.5t111 43.5q61 0 99.5 -43.5t32.5 -104.5z
M757 419l103 589h236l-178 -1008h-223l19 144q-63 -77 -148.5 -120.5t-183.5 -43.5q-136 0 -213 72t-77 201q0 35 8 85l119 670h236l-111 -624q-6 -36 -6 -62q0 -73 39.5 -107.5t105.5 -34.5q102 0 177 63.5t95 175.5h2z" />
    <glyph glyph-name="uni01D7" unicode="&#x1d7;" horiz-adv-x="1405" 
d="M876 1964l321 354l109 -89l-272 -265h-158zM688 1566q-53 0 -85.5 38.5t-23.5 92.5q10 54 55.5 91.5t99.5 37.5q53 0 85 -38t22 -91q-9 -54 -54.5 -92.5t-98.5 -38.5zM1088 1566q-54 0 -85.5 38.5t-22.5 92.5q10 54 55 91.5t99 37.5t85 -37.5t21 -91.5q-9 -54 -54 -92.5
t-98 -38.5zM623 -20q-216 0 -347 106.5t-131 301.5q0 49 11 109l165 931h245l-160 -914q-9 -50 -9 -91q0 -114 62.5 -168.5t170.5 -54.5q138 0 240 84t131 246l159 898h246l-167 -948q-30 -165 -121 -279.5t-217 -167.5t-278 -53z" />
    <glyph glyph-name="uni01D8" unicode="&#x1d8;" horiz-adv-x="1158" 
d="M1132 1909l-273 -264h-158l321 354zM512 1208q-62 0 -102 44t-33 106q7 61 56 104.5t111 43.5q61 0 99.5 -43.5t32.5 -104.5q-6 -62 -55 -106t-109 -44zM789 1358q7 61 56 104.5t111 43.5q61 0 99.5 -43.5t32.5 -104.5q-6 -62 -55 -106t-109 -44q-62 0 -102 44t-33 106z
M757 419l103 589h236l-178 -1008h-223l19 144q-63 -77 -148.5 -120.5t-183.5 -43.5q-136 0 -213 72t-77 201q0 35 8 85l119 670h236l-111 -624q-6 -36 -6 -62q0 -73 39.5 -107.5t105.5 -34.5q102 0 177 63.5t95 175.5h2z" />
    <glyph glyph-name="uni01D9" unicode="&#x1d9;" horiz-adv-x="1405" 
d="M877 1964l-169 298h157l107 -206l180 206h158l-274 -298h-159zM688 1566q-53 0 -85.5 38.5t-23.5 92.5q10 54 55.5 91.5t99.5 37.5q53 0 85 -38t22 -91q-9 -54 -54.5 -92.5t-98.5 -38.5zM1088 1566q-54 0 -85.5 38.5t-22.5 92.5q10 54 55 91.5t99 37.5t85 -37.5t21 -91.5
q-9 -54 -54 -92.5t-98 -38.5zM623 -20q-216 0 -347 106.5t-131 301.5q0 49 11 109l165 931h245l-160 -914q-9 -50 -9 -91q0 -114 62.5 -168.5t170.5 -54.5q138 0 240 84t131 246l159 898h246l-167 -948q-30 -165 -121 -279.5t-217 -167.5t-278 -53z" />
    <glyph glyph-name="uni01DA" unicode="&#x1da;" horiz-adv-x="1158" 
d="M867 1673h-158l-169 298h157l107 -206l179 206h159zM512 1208q-62 0 -102 44t-33 106q7 61 56 104.5t111 43.5q61 0 99.5 -43.5t32.5 -104.5q-6 -62 -55 -106t-109 -44zM789 1358q7 61 56 104.5t111 43.5q61 0 99.5 -43.5t32.5 -104.5q-6 -62 -55 -106t-109 -44
q-62 0 -102 44t-33 106zM757 419l103 589h236l-178 -1008h-223l19 144q-63 -77 -148.5 -120.5t-183.5 -43.5q-136 0 -213 72t-77 201q0 35 8 85l119 670h236l-111 -624q-6 -36 -6 -62q0 -73 39.5 -107.5t105.5 -34.5q102 0 177 63.5t95 175.5h2z" />
    <glyph glyph-name="uni01DB" unicode="&#x1db;" horiz-adv-x="1405" 
d="M879 1964l-179 265l141 89l196 -354h-158zM688 1566q-53 0 -85.5 38.5t-23.5 92.5q10 54 55.5 91.5t99.5 37.5q53 0 85 -38t22 -91q-9 -54 -54.5 -92.5t-98.5 -38.5zM1088 1566q-54 0 -85.5 38.5t-22.5 92.5q10 54 55 91.5t99 37.5t85 -37.5t21 -91.5q-9 -54 -54 -92.5
t-98 -38.5zM623 -20q-216 0 -347 106.5t-131 301.5q0 49 11 109l165 931h245l-160 -914q-9 -50 -9 -91q0 -114 62.5 -168.5t170.5 -54.5q138 0 240 84t131 246l159 898h246l-167 -948q-30 -165 -121 -279.5t-217 -167.5t-278 -53z" />
    <glyph glyph-name="uni01DC" unicode="&#x1dc;" horiz-adv-x="1158" 
d="M862 1645h-158l-178 264l140 90zM512 1208q-62 0 -102 44t-33 106q7 61 56 104.5t111 43.5q61 0 99.5 -43.5t32.5 -104.5q-6 -62 -55 -106t-109 -44zM789 1358q7 61 56 104.5t111 43.5q61 0 99.5 -43.5t32.5 -104.5q-6 -62 -55 -106t-109 -44q-62 0 -102 44t-33 106z
M860 1008h236l-178 -1008h-223l19 144q-63 -77 -148.5 -120.5t-183.5 -43.5q-136 0 -213 72t-77 201q0 35 8 85l119 670h236l-111 -624q-6 -36 -6 -62q0 -73 39.5 -107.5t105.5 -34.5q102 0 177 63.5t95 175.5h2z" />
    <glyph glyph-name="Scommaaccent" unicode="&#x218;" horiz-adv-x="1262" 
d="M594 -20q-155 0 -276.5 48t-192 141t-71.5 217l259 44q5 -114 84 -179.5t212 -65.5q130 0 212.5 61t82.5 158q0 43 -16.5 77.5t-41 56.5t-66.5 42t-77.5 32t-90.5 29q-9 3 -14 4q-49 15 -82 26t-77 29.5t-73 37.5t-61 47t-50.5 60t-30.5 76t-12 95q0 126 69.5 225
t190 153t269.5 54q100 0 189 -22t162 -65.5t117 -116.5t48 -166l-243 -45q-4 107 -77 158.5t-187 51.5q-124 0 -207.5 -59t-83.5 -146q0 -25 5 -46t17.5 -39t24 -31t35 -26t39 -21t47.5 -18.5t49.5 -16t55.5 -16.5q53 -15 87.5 -26t83.5 -31t81.5 -39.5t68 -50t56.5 -65
t35 -82t14 -102.5q0 -207 -158.5 -327.5t-405.5 -120.5zM293 -569l-115 58l231 371h220z" />
    <glyph glyph-name="scommaaccent" unicode="&#x219;" horiz-adv-x="946" 
d="M401 -20q-176 0 -275.5 76t-101.5 212l219 42q-3 -79 44 -122.5t127 -43.5t135 42t55 117q0 26 -10 46t-24 33t-44 25t-54 19.5t-71 19.5q-49 13 -83 25t-72.5 33t-62 46t-39 63.5t-15.5 86.5q0 103 56 178t147 111.5t205 36.5q101 0 179.5 -27.5t129 -90.5t51.5 -154
l-199 -31q1 73 -43.5 107.5t-113.5 34.5q-79 0 -133.5 -40t-54.5 -108q0 -36 27 -60t52.5 -33t88.5 -25q17 -5 26 -7q51 -13 88.5 -26t77.5 -35t65 -49t41.5 -68t16.5 -91q0 -110 -58.5 -188.5t-155.5 -116.5t-221 -38zM137 -568l-115 58l231 371h220z" />
    <glyph glyph-name="uni021A" unicode="&#x21a;" horiz-adv-x="1018" 
d="M1146 1428l-39 -218h-351l-214 -1210h-243l213 1210h-353l39 218h948zM54 -511l231 371h220l-336 -429z" />
    <glyph glyph-name="uni021B" unicode="&#x21b;" horiz-adv-x="733" 
d="M421 0q-119 0 -185.5 62t-66.5 173q0 34 7 70l93 520h-203l33 183h61q73 0 124.5 42.5t66.5 120.5l28 167h218l-58 -330h218l-32 -183h-219l-90 -511q-3 -16 -3 -41q0 -91 99 -91h100l-33 -182h-158zM210 -569l-115 58l231 371h220z" />
    <glyph glyph-name="uni0237" unicode="&#x237;" horiz-adv-x="554" 
d="M-229 -475l32 200q68 0 111.5 15t73 55t47 94.5t33.5 147.5l172 976h253l-175 -994q-47 -266 -171.5 -380t-375.5 -114z" />
    <glyph glyph-name="circumflex" unicode="&#x2c6;" horiz-adv-x="690" 
d="M331 1238h-158l275 298h158l169 -298h-158l-107 206z" />
    <glyph glyph-name="caron" unicode="&#x2c7;" horiz-adv-x="697" 
d="M398 1238l-169 298h157l107 -206l179 206h159l-275 -298h-158z" />
    <glyph glyph-name="breve" unicode="&#x2d8;" horiz-adv-x="886" 
d="M563 1197q-160 0 -242.5 89t-53.5 250h146q-17 -96 30 -157.5t140 -61.5q95 0 164.5 61t86.5 158h146q-29 -161 -142 -250t-275 -89z" />
    <glyph glyph-name="dotaccent" unicode="&#x2d9;" horiz-adv-x="522" 
d="M396 1213q-62 0 -101 44t-33 106q6 61 55 104.5t112 43.5q60 0 99.5 -43.5t32.5 -104.5q-7 -62 -56 -106t-109 -44z" />
    <glyph glyph-name="ring" unicode="&#x2da;" horiz-adv-x="649" 
d="M447 1143q-95 0 -155.5 68t-51.5 163q11 94 86 161t171 67q93 0 152.5 -67t48.5 -161q-9 -95 -83 -163t-168 -68zM459 1253q51 0 89 34t43 87q5 49 -25.5 85.5t-80.5 36.5t-89 -36.5t-44 -85.5q-5 -54 25.5 -87.5t81.5 -33.5z" />
    <glyph glyph-name="ogonek" unicode="&#x2db;" horiz-adv-x="506" 
d="M87 -412q-87 0 -133 27t-37 77q20 116 303 339l70 -31q-198 -158 -209 -223q-4 -19 10.5 -28.5t47.5 -9.5q64 0 112 37l-29 -164q-64 -24 -135 -24z" />
    <glyph glyph-name="tilde" unicode="&#x2dc;" horiz-adv-x="848" 
d="M659 1156q-108 0 -154 100q-18 43 -57 43q-36 0 -62 -36t-36 -94h-124q20 111 85 181t154 70q108 0 153 -101q17 -42 60 -42q73 0 96 129h124q-19 -109 -83.5 -179.5t-155.5 -70.5z" />
    <glyph glyph-name="hungarumlaut" unicode="&#x2dd;" horiz-adv-x="841" 
d="M149 1210l321 354l110 -90l-273 -264h-158zM520 1210l322 354l110 -90l-273 -264h-159z" />
    <glyph glyph-name="gravecomb" unicode="&#x300;" 
d="M-68 1210l-178 264l140 90l196 -354h-158z" />
    <glyph glyph-name="acutecomb" unicode="&#x301;" 
d="M-312 1210l321 354l110 -90l-273 -264h-158z" />
    <glyph glyph-name="uni0302" unicode="&#x302;" 
d="M-359 1238h-158l275 298h158l169 -298h-158l-107 206z" />
    <glyph glyph-name="tildecomb" unicode="&#x303;" 
d="M-189 1156q-108 0 -154 100q-18 43 -57 43q-36 0 -62 -36t-36 -94h-124q20 111 85 181t154 70q108 0 153 -101q17 -42 60 -42q73 0 96 129h124q-19 -109 -83.5 -179.5t-155.5 -70.5z" />
    <glyph glyph-name="uni0304" unicode="&#x304;" 
d="M-675 1237l26 150h659l-27 -150h-658z" />
    <glyph glyph-name="uni0306" unicode="&#x306;" 
d="M-323 1197q-160 0 -242.5 89t-53.5 250h146q-17 -96 30 -157.5t140 -61.5q95 0 164.5 61t86.5 158h146q-29 -161 -142 -250t-275 -89z" />
    <glyph glyph-name="uni0307" unicode="&#x307;" 
d="M-125 1213q-62 0 -101 44t-33 106q6 61 55 104.5t112 43.5q60 0 99.5 -43.5t32.5 -104.5q-7 -62 -56 -106t-109 -44z" />
    <glyph glyph-name="uni0308" unicode="&#x308;" 
d="M-537 1213q-62 0 -102 44t-33 106q7 61 56 104.5t111 43.5q61 0 99.5 -43.5t32.5 -104.5q-6 -62 -55 -106t-109 -44zM-125 1213q-62 0 -102 44t-33 106q7 61 56 104.5t111 43.5q61 0 99.5 -43.5t32.5 -104.5q-6 -62 -55 -106t-109 -44z" />
    <glyph glyph-name="hookabovecomb" unicode="&#x309;" 
d="M-223 1145l23 130q116 21 131 101q5 33 -10.5 53.5t-51.5 20.5q-47 0 -92 -36l-47 88q75 54 168 54q88 0 132 -47.5t31 -125.5q-21 -117 -156 -157l-14 -81h-114z" />
    <glyph glyph-name="uni030A" unicode="&#x30a;" 
d="M-195 1143q-95 0 -155.5 68t-51.5 163q11 94 86 161t171 67q93 0 152.5 -67t48.5 -161q-9 -95 -83 -163t-168 -68zM-183 1253q51 0 89 34t43 87q5 49 -25.5 85.5t-80.5 36.5t-89 -36.5t-44 -85.5q-5 -54 25.5 -87.5t81.5 -33.5z" />
    <glyph glyph-name="uni030B" unicode="&#x30b;" 
d="M-684 1210l321 354l110 -90l-273 -264h-158zM-313 1210l322 354l110 -90l-273 -264h-159z" />
    <glyph glyph-name="uni030C" unicode="&#x30c;" 
d="M-299 1238l-169 298h157l107 -206l179 206h159l-275 -298h-158z" />
    <glyph glyph-name="uni0312" unicode="&#x312;" 
d="M140 1531l-294 -320h-261l371 320h184z" />
    <glyph glyph-name="uni031B" unicode="&#x31b;" 
d="M-261 767q-94 0 -182 61l62 83q49 -28 95 -28q54 0 80.5 32.5t39.5 111.5l22 119h130l-27 -147q-22 -124 -81 -178t-139 -54z" />
    <glyph glyph-name="dotbelowcomb" unicode="&#x323;" 
d="M-440 -512q-62 0 -98 43.5t-26 106.5q11 61 63 104.5t114 43.5q60 0 96.5 -44t25.5 -104q-10 -62 -62 -106t-113 -44z" />
    <glyph glyph-name="uni0326" unicode="&#x326;" 
d="M-488 -569l-115 58l231 371h220z" />
    <glyph glyph-name="uni0327" unicode="&#x327;" 
d="M-471 -532q-81 0 -139 41t-74 103l121 42q12 -31 42.5 -49.5t65.5 -18.5q42 0 77 28t43 73q9 46 -16.5 72t-71.5 26q-45 0 -81 -27l-85 57l157 222h123l-118 -165q34 6 49 6q86 0 132 -53.5t31 -137.5q-16 -92 -90 -155.5t-166 -63.5z" />
    <glyph glyph-name="uni0328" unicode="&#x328;" 
d="M-411 -412q-87 0 -133 27t-37 77q20 116 303 339l70 -31q-198 -158 -209 -223q-4 -19 10.5 -28.5t47.5 -9.5q64 0 112 37l-29 -164q-64 -24 -135 -24z" />
    <glyph glyph-name="uni0335" unicode="&#x335;" 
d="M-820 443l27 156h662l-27 -156h-662z" />
    <glyph glyph-name="uni0336" unicode="&#x336;" 
d="M-1651 478l19 109h1500l-20 -109h-1499z" />
    <glyph glyph-name="uni0337" unicode="&#x337;" 
d="M-687 257l29 163l682 450l-29 -165z" />
    <glyph glyph-name="uni0338" unicode="&#x338;" 
d="M-769 209l809 1159l105 -63l-808 -1159z" />
    <glyph glyph-name="uni0394" unicode="&#x394;" horiz-adv-x="1559" 
d="M1095 1536l346 -1536h-1503l887 1536h270zM335 233h800l-217 1034z" />
    <glyph glyph-name="uni03A9" unicode="&#x3a9;" horiz-adv-x="1774" 
d="M1698 943q0 -125 -46.5 -261t-134 -260t-199.5 -207h303l-37 -215h-653l22 172q140 71 247.5 199.5t162 277t54.5 292.5q0 173 -93 280.5t-269 107.5q-112 0 -210 -42t-168 -113t-120.5 -162.5t-75 -191.5t-24.5 -200q0 -161 64.5 -280t168.5 -176l-22 -164h-657l38 215
h307l9 10q-74 71 -125 195t-51 273q0 124 37 246.5t112 232t177.5 193.5t243.5 133t301 49q156 0 280 -49.5t201 -134t117 -192t40 -228.5z" />
    <glyph glyph-name="uni03BC" unicode="&#x3bc;" horiz-adv-x="1217" 
d="M906 1013h249l-178 -1013h-250l19 106q-130 -124 -293 -124q-115 0 -200 63l-89 -503h-184l259 1471h251l-108 -618q-4 -20 -4 -40q0 -69 42.5 -112t110.5 -43q95 0 173.5 62t94.5 148z" />
    <glyph glyph-name="pi" unicode="&#x3c0;" horiz-adv-x="1270" 
d="M49 1q73 144 157 393.5t129 435.5q-160 -1 -231 -20l-15 150q88 53 344 53h906l-52 -184h-161l-89 -548q-34 -206 -25 -282l-218 2q-11 29 -11 85q0 71 21 197l87 546h-337q-44 -205 -124.5 -461.5t-151.5 -368.5z" />
    <glyph glyph-name="Wgrave" unicode="&#x1e80;" horiz-adv-x="2090" 
d="M1151 1566l-179 265l141 89l196 -354h-158zM343 0l-138 1428h250l105 -1123l536 1123h212l133 -1123l508 1123h260l-640 -1428h-308l-131 979l-480 -979h-307z" />
    <glyph glyph-name="wgrave" unicode="&#x1e81;" horiz-adv-x="1662" 
d="M1032 1159h-158l-178 264l140 90zM1489 1008h249l-528 -1009h-218l-124 713l-378 -713h-220l-167 1009h242l101 -705l378 705h182l128 -706z" />
    <glyph glyph-name="Wacute" unicode="&#x1e82;" horiz-adv-x="2090" 
d="M1148 1566l321 354l109 -89l-272 -265h-158zM343 0l-138 1428h250l105 -1123l536 1123h212l133 -1123l508 1123h260l-640 -1428h-308l-131 979l-480 -979h-307z" />
    <glyph glyph-name="wacute" unicode="&#x1e83;" horiz-adv-x="1662" 
d="M1302 1423l-273 -264h-158l321 354zM1489 1008h249l-528 -1009h-218l-124 713l-378 -713h-220l-167 1009h242l101 -705l378 705h182l128 -706z" />
    <glyph glyph-name="Wdieresis" unicode="&#x1e84;" horiz-adv-x="2090" 
d="M1030 1566q-53 0 -85.5 38.5t-23.5 92.5q10 54 55.5 91.5t99.5 37.5q53 0 85 -38t22 -91q-9 -54 -54.5 -92.5t-98.5 -38.5zM1430 1566q-54 0 -85.5 38.5t-22.5 92.5q10 54 55 91.5t99 37.5t85 -37.5t21 -91.5q-9 -54 -54 -92.5t-98 -38.5zM343 0l-138 1428h250l105 -1123
l536 1123h212l133 -1123l508 1123h260l-640 -1428h-308l-131 979l-480 -979h-307z" />
    <glyph glyph-name="wdieresis" unicode="&#x1e85;" horiz-adv-x="1662" 
d="M768 1208q-62 0 -102 44t-33 106q7 61 56 104.5t111 43.5q61 0 99.5 -43.5t32.5 -104.5q-6 -62 -55 -106t-109 -44zM1180 1208q-62 0 -102 44t-33 106q7 61 56 104.5t111 43.5q61 0 99.5 -43.5t32.5 -104.5q-6 -62 -55 -106t-109 -44zM1489 1008h249l-528 -1009h-218
l-124 713l-378 -713h-220l-167 1009h242l101 -705l378 705h182l128 -706z" />
    <glyph glyph-name="uni1EA0" unicode="&#x1ea0;" horiz-adv-x="1412" 
d="M1292 0h-250l-56 316h-621l-168 -316h-256l777 1428h298zM476 525h473l-119 667zM581 -214q60 0 96.5 -44t25.5 -104q-10 -62 -62 -106t-113 -44q-62 0 -98 43.5t-26 106.5q11 61 63 104.5t114 43.5z" />
    <glyph glyph-name="uni1EA1" unicode="&#x1ea1;" horiz-adv-x="1265" 
d="M966 1008h236l-178 -1008h-215l13 153q-57 -84 -151 -130t-201 -46q-181 0 -295.5 115t-114.5 313q0 92 26 182t75.5 169t117 140t157 96t187.5 35q115 0 199 -49.5t116 -133.5zM537 177q80 0 150.5 37t116.5 95.5t72.5 127.5t26.5 135q0 112 -65 184.5t-177 72.5
q-106 0 -190.5 -61t-128 -152t-43.5 -188q0 -117 65 -184t173 -67zM499 -214q60 0 96.5 -44t25.5 -104q-10 -62 -62 -106t-113 -44q-62 0 -98 43.5t-26 106.5q11 61 63 104.5t114 43.5z" />
    <glyph glyph-name="uni1EA2" unicode="&#x1ea2;" horiz-adv-x="1412" 
d="M925 1836q-45 0 -92 -36l-47 87q76 55 168 55q88 0 132 -48t31 -125q-20 -117 -157 -157l-13 -81h-114l23 130q117 21 131 101q6 32 -10 53t-52 21zM1042 0l-56 316h-621l-168 -316h-256l777 1428h298l276 -1428h-250zM476 525h473l-119 667z" />
    <glyph glyph-name="uni1EA3" unicode="&#x1ea3;" horiz-adv-x="1265" 
d="M775 1404q-47 0 -92 -36l-47 88q75 54 168 54q88 0 132 -47.5t31 -125.5q-21 -117 -156 -157l-14 -81h-114l23 130q116 21 131 101q5 33 -10.5 53.5t-51.5 20.5zM966 1008h236l-178 -1008h-215l13 153q-57 -84 -151 -130t-201 -46q-181 0 -295.5 115t-114.5 313
q0 92 26 182t75.5 169t117 140t157 96t187.5 35q115 0 199 -49.5t116 -133.5zM537 177q80 0 150.5 37t116.5 95.5t72.5 127.5t26.5 135q0 112 -65 184.5t-177 72.5q-106 0 -190.5 -61t-128 -152t-43.5 -188q0 -117 65 -184t173 -67z" />
    <glyph glyph-name="uni1EA4" unicode="&#x1ea4;" horiz-adv-x="1412" 
d="M1318 2267l-272 -265h-158l321 354zM928 1771l-179 -205h-157l274 298h158l170 -298h-159zM718 1428h298l276 -1428h-250l-56 316h-621l-168 -316h-256zM476 525h473l-119 667z" />
    <glyph glyph-name="uni1EA5" unicode="&#x1ea5;" horiz-adv-x="1265" 
d="M1180 1905l-273 -264h-158l321 354zM789 1398l-179 -206h-158l275 298h158l169 -298h-158zM966 1008h236l-178 -1008h-215l13 153q-57 -84 -151 -130t-201 -46q-181 0 -295.5 115t-114.5 313q0 92 26 182t75.5 169t117 140t157 96t187.5 35q115 0 199 -49.5t116 -133.5z
M537 177q80 0 150.5 37t116.5 95.5t72.5 127.5t26.5 135q0 112 -65 184.5t-177 72.5q-106 0 -190.5 -61t-128 -152t-43.5 -188q0 -117 65 -184t173 -67z" />
    <glyph glyph-name="uni1EA6" unicode="&#x1ea6;" horiz-adv-x="1412" 
d="M1049 2002h-158l-179 265l141 89zM928 1771l-179 -205h-157l274 298h158l170 -298h-159zM1042 0l-56 316h-621l-168 -316h-256l777 1428h298l276 -1428h-250zM476 525h473l-119 667z" />
    <glyph glyph-name="uni1EA7" unicode="&#x1ea7;" horiz-adv-x="1265" 
d="M910 1641h-158l-178 264l140 90zM789 1398l-179 -206h-158l275 298h158l169 -298h-158zM966 1008h236l-178 -1008h-215l13 153q-57 -84 -151 -130t-201 -46q-181 0 -295.5 115t-114.5 313q0 92 26 182t75.5 169t117 140t157 96t187.5 35q115 0 199 -49.5t116 -133.5z
M537 177q80 0 150.5 37t116.5 95.5t72.5 127.5t26.5 135q0 112 -65 184.5t-177 72.5q-106 0 -190.5 -61t-128 -152t-43.5 -188q0 -117 65 -184t173 -67z" />
    <glyph glyph-name="uni1EA8" unicode="&#x1ea8;" horiz-adv-x="1412" 
d="M1001 2272q-45 0 -92 -36l-47 87q76 55 168 55q88 0 132 -48t31 -125q-20 -117 -157 -157l-13 -81h-114l23 130q117 21 131 101q6 32 -10 53t-52 21zM928 1771l-179 -205h-157l274 298h158l170 -298h-159zM1042 0l-56 316h-621l-168 -316h-256l777 1428h298l276 -1428
h-250zM476 525h473l-119 667z" />
    <glyph glyph-name="uni1EA9" unicode="&#x1ea9;" horiz-adv-x="1265" 
d="M858 1881q-47 0 -92 -36l-47 88q75 54 168 54q88 0 132 -47.5t31 -125.5q-21 -117 -156 -157l-14 -81h-114l23 130q116 21 131 101q5 33 -10.5 53.5t-51.5 20.5zM789 1398l-179 -206h-158l275 298h158l169 -298h-158zM966 1008h236l-178 -1008h-215l13 153
q-57 -84 -151 -130t-201 -46q-181 0 -295.5 115t-114.5 313q0 92 26 182t75.5 169t117 140t157 96t187.5 35q115 0 199 -49.5t116 -133.5zM537 177q80 0 150.5 37t116.5 95.5t72.5 127.5t26.5 135q0 112 -65 184.5t-177 72.5q-106 0 -190.5 -61t-128 -152t-43.5 -188
q0 -117 65 -184t173 -67z" />
    <glyph glyph-name="uni1EAA" unicode="&#x1eaa;" horiz-adv-x="1412" 
d="M873 2162q-43 0 -75 -42.5t-44 -109.5h-132q23 124 96.5 202.5t173.5 78.5q119 0 173 -114q23 -52 73 -52q44 0 74.5 40.5t42.5 109.5h133q-23 -123 -95 -201.5t-175 -78.5q-120 0 -174 115q-22 52 -71 52zM928 1771l-179 -205h-157l274 298h158l170 -298h-159zM718 1428
h298l276 -1428h-250l-56 316h-621l-168 -316h-256zM476 525h473l-119 667z" />
    <glyph glyph-name="uni1EAB" unicode="&#x1eab;" horiz-adv-x="1265" 
d="M750 1776q-36 0 -62 -36t-36 -94h-124q20 111 85 181t154 70q108 0 153 -101q17 -42 60 -42q73 0 96 129h124q-19 -109 -83.5 -179.5t-155.5 -70.5q-108 0 -154 100q-18 43 -57 43zM789 1398l-179 -206h-158l275 298h158l169 -298h-158zM966 1008h236l-178 -1008h-215
l13 153q-57 -84 -151 -130t-201 -46q-181 0 -295.5 115t-114.5 313q0 92 26 182t75.5 169t117 140t157 96t187.5 35q115 0 199 -49.5t116 -133.5zM537 177q80 0 150.5 37t116.5 95.5t72.5 127.5t26.5 135q0 112 -65 184.5t-177 72.5q-106 0 -190.5 -61t-128 -152t-43.5 -188
q0 -117 65 -184t173 -67z" />
    <glyph glyph-name="uni1EAC" unicode="&#x1eac;" horiz-adv-x="1412" 
d="M928 1771l-179 -205h-157l274 298h158l170 -298h-159zM1292 0h-250l-56 316h-621l-168 -316h-256l777 1428h298zM476 525h473l-119 667zM581 -214q60 0 96.5 -44t25.5 -104q-10 -62 -62 -106t-113 -44q-62 0 -98 43.5t-26 106.5q11 61 63 104.5t114 43.5z" />
    <glyph glyph-name="uni1EAD" unicode="&#x1ead;" horiz-adv-x="1265" 
d="M789 1398l-179 -206h-158l275 298h158l169 -298h-158zM966 1008h236l-178 -1008h-215l13 153q-57 -84 -151 -130t-201 -46q-181 0 -295.5 115t-114.5 313q0 92 26 182t75.5 169t117 140t157 96t187.5 35q115 0 199 -49.5t116 -133.5zM537 177q80 0 150.5 37t116.5 95.5
t72.5 127.5t26.5 135q0 112 -65 184.5t-177 72.5q-106 0 -190.5 -61t-128 -152t-43.5 -188q0 -117 65 -184t173 -67zM499 -214q60 0 96.5 -44t25.5 -104q-10 -62 -62 -106t-113 -44q-62 0 -98 43.5t-26 106.5q11 61 63 104.5t114 43.5z" />
    <glyph glyph-name="uni1EAE" unicode="&#x1eae;" horiz-adv-x="1412" 
d="M1319 2256l-272 -265h-158l321 354zM914 1686q99 0 162.5 41t78.5 126h146q-27 -149 -134 -218t-274 -69q-166 0 -249 69t-56 218h146q-15 -84 34 -125.5t146 -41.5zM718 1428h298l276 -1428h-250l-56 316h-621l-168 -316h-256zM476 525h473l-119 667z" />
    <glyph glyph-name="uni1EAF" unicode="&#x1eaf;" horiz-adv-x="1265" 
d="M1181 1905l-273 -264h-158l321 354zM746 1151q-160 0 -242.5 89t-53.5 250h146q-17 -96 30 -157.5t140 -61.5q95 0 164.5 61t86.5 158h146q-29 -161 -142 -250t-275 -89zM966 1008h236l-178 -1008h-215l13 153q-57 -84 -151 -130t-201 -46q-181 0 -295.5 115t-114.5 313
q0 92 26 182t75.5 169t117 140t157 96t187.5 35q115 0 199 -49.5t116 -133.5zM537 177q80 0 150.5 37t116.5 95.5t72.5 127.5t26.5 135q0 112 -65 184.5t-177 72.5q-106 0 -190.5 -61t-128 -152t-43.5 -188q0 -117 65 -184t173 -67z" />
    <glyph glyph-name="uni1EB0" unicode="&#x1eb0;" horiz-adv-x="1412" 
d="M1050 1991h-158l-179 265l141 89zM893 1566q-166 0 -249 69t-56 218h146q-15 -84 34 -125.5t146 -41.5q99 0 162.5 41t78.5 126h146q-27 -149 -134 -218t-274 -69zM718 1428h298l276 -1428h-250l-56 316h-621l-168 -316h-256zM476 525h473l-119 667z" />
    <glyph glyph-name="uni1EB1" unicode="&#x1eb1;" horiz-adv-x="1265" 
d="M911 1641h-158l-178 264l140 90zM746 1151q-160 0 -242.5 89t-53.5 250h146q-17 -96 30 -157.5t140 -61.5q95 0 164.5 61t86.5 158h146q-29 -161 -142 -250t-275 -89zM966 1008h236l-178 -1008h-215l13 153q-57 -84 -151 -130t-201 -46q-181 0 -295.5 115t-114.5 313
q0 92 26 182t75.5 169t117 140t157 96t187.5 35q115 0 199 -49.5t116 -133.5zM537 177q80 0 150.5 37t116.5 95.5t72.5 127.5t26.5 135q0 112 -65 184.5t-177 72.5q-106 0 -190.5 -61t-128 -152t-43.5 -188q0 -117 65 -184t173 -67z" />
    <glyph glyph-name="uni1EB2" unicode="&#x1eb2;" horiz-adv-x="1412" 
d="M1002 2261q-46 0 -92 -36l-47 87q76 55 168 55q88 0 132 -48t31 -125q-20 -117 -157 -157l-13 -81h-114l23 130q117 21 131 101q6 32 -10 53t-52 21zM893 1566q-166 0 -249 69t-56 218h146q-15 -84 34 -125.5t146 -41.5q99 0 162.5 41t78.5 126h146q-27 -149 -134 -218
t-274 -69zM718 1428h298l276 -1428h-250l-56 316h-621l-168 -316h-256zM476 525h473l-119 667z" />
    <glyph glyph-name="uni1EB3" unicode="&#x1eb3;" horiz-adv-x="1265" 
d="M859 1881q-47 0 -92 -36l-47 88q75 54 168 54q88 0 132 -47.5t31 -125.5q-21 -117 -156 -157l-14 -81h-114l23 130q116 21 131 101q5 33 -10.5 53.5t-51.5 20.5zM746 1151q-160 0 -242.5 89t-53.5 250h146q-17 -96 30 -157.5t140 -61.5q95 0 164.5 61t86.5 158h146
q-29 -161 -142 -250t-275 -89zM966 1008h236l-178 -1008h-215l13 153q-57 -84 -151 -130t-201 -46q-181 0 -295.5 115t-114.5 313q0 92 26 182t75.5 169t117 140t157 96t187.5 35q115 0 199 -49.5t116 -133.5zM537 177q80 0 150.5 37t116.5 95.5t72.5 127.5t26.5 135
q0 112 -65 184.5t-177 72.5q-106 0 -190.5 -61t-128 -152t-43.5 -188q0 -117 65 -184t173 -67z" />
    <glyph glyph-name="uni1EB4" unicode="&#x1eb4;" horiz-adv-x="1412" 
d="M874 2151q-43 0 -75 -42.5t-44 -109.5h-132q23 124 96.5 202.5t173.5 78.5q119 0 173 -114q23 -52 73 -52q44 0 74.5 40.5t42.5 109.5h133q-23 -123 -95 -201.5t-175 -78.5q-120 0 -174 115q-22 52 -71 52zM914 1686q99 0 162.5 41t78.5 126h146q-27 -149 -134 -218
t-274 -69q-166 0 -249 69t-56 218h146q-15 -84 34 -125.5t146 -41.5zM718 1428h298l276 -1428h-250l-56 316h-621l-168 -316h-256zM476 525h473l-119 667z" />
    <glyph glyph-name="uni1EB5" unicode="&#x1eb5;" horiz-adv-x="1265" 
d="M751 1776q-36 0 -62 -36t-36 -94h-124q20 111 85 181t154 70q108 0 153 -101q17 -42 60 -42q73 0 96 129h124q-19 -109 -83.5 -179.5t-155.5 -70.5q-108 0 -154 100q-18 43 -57 43zM746 1151q-160 0 -242.5 89t-53.5 250h146q-17 -96 30 -157.5t140 -61.5q95 0 164.5 61
t86.5 158h146q-29 -161 -142 -250t-275 -89zM966 1008h236l-178 -1008h-215l13 153q-57 -84 -151 -130t-201 -46q-181 0 -295.5 115t-114.5 313q0 92 26 182t75.5 169t117 140t157 96t187.5 35q115 0 199 -49.5t116 -133.5zM537 177q80 0 150.5 37t116.5 95.5t72.5 127.5
t26.5 135q0 112 -65 184.5t-177 72.5q-106 0 -190.5 -61t-128 -152t-43.5 -188q0 -117 65 -184t173 -67z" />
    <glyph glyph-name="uni1EB6" unicode="&#x1eb6;" horiz-adv-x="1412" 
d="M893 1566q-166 0 -249 69t-56 218h146q-15 -84 34 -125.5t146 -41.5q99 0 162.5 41t78.5 126h146q-27 -149 -134 -218t-274 -69zM718 1428h298l276 -1428h-250l-56 316h-621l-168 -316h-256zM476 525h473l-119 667zM581 -214q60 0 96.5 -44t25.5 -104q-10 -62 -62 -106
t-113 -44q-62 0 -98 43.5t-26 106.5q11 61 63 104.5t114 43.5z" />
    <glyph glyph-name="uni1EB7" unicode="&#x1eb7;" horiz-adv-x="1265" 
d="M746 1151q-160 0 -242.5 89t-53.5 250h146q-17 -96 30 -157.5t140 -61.5q95 0 164.5 61t86.5 158h146q-29 -161 -142 -250t-275 -89zM966 1008h236l-178 -1008h-215l13 153q-57 -84 -151 -130t-201 -46q-181 0 -295.5 115t-114.5 313q0 92 26 182t75.5 169t117 140
t157 96t187.5 35q115 0 199 -49.5t116 -133.5zM537 177q80 0 150.5 37t116.5 95.5t72.5 127.5t26.5 135q0 112 -65 184.5t-177 72.5q-106 0 -190.5 -61t-128 -152t-43.5 -188q0 -117 65 -184t173 -67zM499 -214q60 0 96.5 -44t25.5 -104q-10 -62 -62 -106t-113 -44
q-62 0 -98 43.5t-26 106.5q11 61 63 104.5t114 43.5z" />
    <glyph glyph-name="uni1EB8" unicode="&#x1eb8;" horiz-adv-x="1099" 
d="M1113 1210h-552l-68 -388h488l-38 -216h-488l-68 -387h551l-38 -219h-801l252 1428h801zM469 -214q60 0 96.5 -44t25.5 -104q-10 -62 -62 -106t-113 -44q-62 0 -98 43.5t-26 106.5q11 61 63 104.5t114 43.5z" />
    <glyph glyph-name="uni1EB9" unicode="&#x1eb9;" horiz-adv-x="1138" 
d="M661 1028q194 0 307.5 -99.5t113.5 -291.5q0 -63 -11 -124l-12 -52h-769q-3 -33 -3 -67q0 -110 63 -167t166 -57q87 0 162.5 43.5t124.5 119.5l211 -50q-76 -144 -209 -223.5t-290 -79.5q-211 0 -332.5 110.5t-121.5 307.5q0 97 25 189t76 172t121.5 140t168 94.5
t209.5 34.5zM659 859q-120 0 -203.5 -64t-126.5 -172h529q3 23 3 42q0 96 -54.5 145t-147.5 49zM475 -215q60 0 96.5 -44t25.5 -104q-10 -62 -62 -106t-113 -44q-62 0 -98 43.5t-26 106.5q11 61 63 104.5t114 43.5z" />
    <glyph glyph-name="uni1EBA" unicode="&#x1eba;" horiz-adv-x="1099" 
d="M813 1836q-46 0 -92 -36l-47 87q76 55 168 55q88 0 132 -48t31 -125q-20 -117 -157 -157l-13 -81h-114l23 130q117 21 131 101q6 32 -10 53t-52 21zM1113 1210h-552l-68 -388h488l-38 -216h-488l-68 -387h551l-38 -219h-801l252 1428h801z" />
    <glyph glyph-name="uni1EBB" unicode="&#x1ebb;" horiz-adv-x="1138" 
d="M734 1402q-47 0 -92 -36l-47 88q75 54 168 54q88 0 132 -47.5t31 -125.5q-21 -117 -156 -157l-14 -81h-114l23 130q116 21 131 101q5 33 -10.5 53.5t-51.5 20.5zM661 1028q194 0 307.5 -99.5t113.5 -291.5q0 -63 -11 -124l-12 -52h-769q-3 -33 -3 -67q0 -110 63 -167
t166 -57q87 0 162.5 43.5t124.5 119.5l211 -50q-76 -144 -209 -223.5t-290 -79.5q-211 0 -332.5 110.5t-121.5 307.5q0 97 25 189t76 172t121.5 140t168 94.5t209.5 34.5zM659 859q-120 0 -203.5 -64t-126.5 -172h529q3 23 3 42q0 96 -54.5 145t-147.5 49z" />
    <glyph glyph-name="uni1EBC" unicode="&#x1ebc;" horiz-adv-x="1099" 
d="M685 1726q-43 0 -75 -42.5t-44 -109.5h-132q23 124 96.5 202.5t173.5 78.5q119 0 173 -114q23 -52 73 -52q44 0 74.5 40.5t42.5 109.5h133q-23 -123 -95 -201.5t-175 -78.5q-120 0 -174 115q-22 52 -71 52zM99 0l252 1428h801l-39 -218h-552l-68 -388h488l-38 -216h-488
l-68 -387h551l-38 -219h-801z" />
    <glyph glyph-name="uni1EBD" unicode="&#x1ebd;" horiz-adv-x="1138" 
d="M626 1297q-36 0 -62 -36t-36 -94h-124q20 111 85 181t154 70q108 0 153 -101q17 -42 60 -42q73 0 96 129h124q-19 -109 -83.5 -179.5t-155.5 -70.5q-108 0 -154 100q-18 43 -57 43zM661 1028q194 0 307.5 -99.5t113.5 -291.5q0 -63 -11 -124l-12 -52h-769q-3 -33 -3 -67
q0 -110 63 -167t166 -57q87 0 162.5 43.5t124.5 119.5l211 -50q-76 -144 -209 -223.5t-290 -79.5q-211 0 -332.5 110.5t-121.5 307.5q0 97 25 189t76 172t121.5 140t168 94.5t209.5 34.5zM659 859q-120 0 -203.5 -64t-126.5 -172h529q3 23 3 42q0 96 -54.5 145t-147.5 49z
" />
    <glyph glyph-name="uni1EBE" unicode="&#x1ebe;" horiz-adv-x="1099" 
d="M1206 2267l-272 -265h-158l321 354zM816 1771l-179 -205h-157l274 298h158l170 -298h-159zM99 0l252 1428h801l-39 -218h-552l-68 -388h488l-38 -216h-488l-68 -387h551l-38 -219h-801z" />
    <glyph glyph-name="uni1EBF" unicode="&#x1ebf;" horiz-adv-x="1138" 
d="M1139 1903l-273 -264h-158l321 354zM748 1396l-179 -206h-158l275 298h158l169 -298h-158zM661 1028q194 0 307.5 -99.5t113.5 -291.5q0 -63 -11 -124l-12 -52h-769q-3 -33 -3 -67q0 -110 63 -167t166 -57q87 0 162.5 43.5t124.5 119.5l211 -50q-76 -144 -209 -223.5
t-290 -79.5q-211 0 -332.5 110.5t-121.5 307.5q0 97 25 189t76 172t121.5 140t168 94.5t209.5 34.5zM659 859q-120 0 -203.5 -64t-126.5 -172h529q3 23 3 42q0 96 -54.5 145t-147.5 49z" />
    <glyph glyph-name="uni1EC0" unicode="&#x1ec0;" horiz-adv-x="1099" 
d="M937 2002h-158l-179 265l141 89zM816 1771l-179 -205h-157l274 298h158l170 -298h-159zM1113 1210h-552l-68 -388h488l-38 -216h-488l-68 -387h551l-38 -219h-801l252 1428h801z" />
    <glyph glyph-name="uni1EC1" unicode="&#x1ec1;" horiz-adv-x="1138" 
d="M869 1639h-158l-178 264l140 90zM748 1396l-179 -206h-158l275 298h158l169 -298h-158zM661 1028q194 0 307.5 -99.5t113.5 -291.5q0 -63 -11 -124l-12 -52h-769q-3 -33 -3 -67q0 -110 63 -167t166 -57q87 0 162.5 43.5t124.5 119.5l211 -50q-76 -144 -209 -223.5
t-290 -79.5q-211 0 -332.5 110.5t-121.5 307.5q0 97 25 189t76 172t121.5 140t168 94.5t209.5 34.5zM659 859q-120 0 -203.5 -64t-126.5 -172h529q3 23 3 42q0 96 -54.5 145t-147.5 49z" />
    <glyph glyph-name="uni1EC2" unicode="&#x1ec2;" horiz-adv-x="1099" 
d="M889 2272q-45 0 -92 -36l-47 87q76 55 168 55q88 0 132 -48t31 -125q-20 -117 -157 -157l-13 -81h-114l23 130q117 21 131 101q6 32 -10 53t-52 21zM816 1771l-179 -205h-157l274 298h158l170 -298h-159zM1113 1210h-552l-68 -388h488l-38 -216h-488l-68 -387h551
l-38 -219h-801l252 1428h801z" />
    <glyph glyph-name="uni1EC3" unicode="&#x1ec3;" horiz-adv-x="1138" 
d="M817 1879q-47 0 -92 -36l-47 88q75 54 168 54q88 0 132 -47.5t31 -125.5q-21 -117 -156 -157l-14 -81h-114l23 130q116 21 131 101q5 33 -10.5 53.5t-51.5 20.5zM748 1396l-179 -206h-158l275 298h158l169 -298h-158zM661 1028q194 0 307.5 -99.5t113.5 -291.5
q0 -63 -11 -124l-12 -52h-769q-3 -33 -3 -67q0 -110 63 -167t166 -57q87 0 162.5 43.5t124.5 119.5l211 -50q-76 -144 -209 -223.5t-290 -79.5q-211 0 -332.5 110.5t-121.5 307.5q0 97 25 189t76 172t121.5 140t168 94.5t209.5 34.5zM659 859q-120 0 -203.5 -64t-126.5 -172
h529q3 23 3 42q0 96 -54.5 145t-147.5 49z" />
    <glyph glyph-name="uni1EC4" unicode="&#x1ec4;" horiz-adv-x="1099" 
d="M1143 2275h133q-23 -123 -95 -201.5t-175 -78.5q-120 0 -174 115q-22 52 -71 52q-43 0 -75 -42.5t-44 -109.5h-132q23 124 96.5 202.5t173.5 78.5q119 0 173 -114q23 -52 73 -52q44 0 74.5 40.5t42.5 109.5zM923 1566l-107 205l-179 -205h-157l274 298h158l170 -298h-159
zM99 0l252 1428h801l-39 -218h-552l-68 -388h488l-38 -216h-488l-68 -387h551l-38 -219h-801z" />
    <glyph glyph-name="uni1EC5" unicode="&#x1ec5;" horiz-adv-x="1138" 
d="M709 1774q-36 0 -62 -36t-36 -94h-124q20 111 85 181t154 70q108 0 153 -101q17 -42 60 -42q73 0 96 129h124q-19 -109 -83.5 -179.5t-155.5 -70.5q-108 0 -154 100q-18 43 -57 43zM748 1396l-179 -206h-158l275 298h158l169 -298h-158zM661 1028q194 0 307.5 -99.5
t113.5 -291.5q0 -63 -11 -124l-12 -52h-769q-3 -33 -3 -67q0 -110 63 -167t166 -57q87 0 162.5 43.5t124.5 119.5l211 -50q-76 -144 -209 -223.5t-290 -79.5q-211 0 -332.5 110.5t-121.5 307.5q0 97 25 189t76 172t121.5 140t168 94.5t209.5 34.5zM659 859
q-120 0 -203.5 -64t-126.5 -172h529q3 23 3 42q0 96 -54.5 145t-147.5 49z" />
    <glyph glyph-name="uni1EC6" unicode="&#x1ec6;" horiz-adv-x="1099" 
d="M816 1771l-179 -205h-157l274 298h158l170 -298h-159zM1113 1210h-552l-68 -388h488l-38 -216h-488l-68 -387h551l-38 -219h-801l252 1428h801zM469 -214q60 0 96.5 -44t25.5 -104q-10 -62 -62 -106t-113 -44q-62 0 -98 43.5t-26 106.5q11 61 63 104.5t114 43.5z" />
    <glyph glyph-name="uni1EC7" unicode="&#x1ec7;" horiz-adv-x="1138" 
d="M748 1396l-179 -206h-158l275 298h158l169 -298h-158zM661 1028q194 0 307.5 -99.5t113.5 -291.5q0 -63 -11 -124l-12 -52h-769q-3 -33 -3 -67q0 -110 63 -167t166 -57q87 0 162.5 43.5t124.5 119.5l211 -50q-76 -144 -209 -223.5t-290 -79.5q-211 0 -332.5 110.5
t-121.5 307.5q0 97 25 189t76 172t121.5 140t168 94.5t209.5 34.5zM659 859q-120 0 -203.5 -64t-126.5 -172h529q3 23 3 42q0 96 -54.5 145t-147.5 49zM475 -215q60 0 96.5 -44t25.5 -104q-10 -62 -62 -106t-113 -44q-62 0 -98 43.5t-26 106.5q11 61 63 104.5t114 43.5z" />
    <glyph glyph-name="uni1EC8" unicode="&#x1ec8;" horiz-adv-x="623" 
d="M436 1531l23 130q117 21 131 101q6 32 -10 53t-52 21q-45 0 -92 -36l-47 87q76 55 168 55q88 0 132 -48t31 -125q-20 -117 -157 -157l-13 -81h-114zM99 0l252 1428h245l-252 -1428h-245z" />
    <glyph glyph-name="uni1EC9" unicode="&#x1ec9;" horiz-adv-x="551" 
d="M328 1099l23 130q116 21 131 101q5 33 -10.5 53.5t-51.5 20.5q-47 0 -92 -36l-47 88q75 54 168 54q88 0 132 -47.5t31 -125.5q-21 -117 -156 -157l-14 -81h-114zM61 0l179 1013h251l-180 -1013h-250z" />
    <glyph glyph-name="uni1ECA" unicode="&#x1eca;" horiz-adv-x="623" 
d="M99 0l252 1428h245l-252 -1428h-245zM131 -512q-62 0 -98 43.5t-26 106.5q11 61 63 104.5t114 43.5q60 0 96.5 -44t25.5 -104q-10 -62 -62 -106t-113 -44z" />
    <glyph glyph-name="uni1ECB" unicode="&#x1ecb;" horiz-adv-x="551" 
d="M413 1213q-62 0 -101 44t-33 106q6 61 55 104.5t112 43.5q60 0 99.5 -43.5t32.5 -104.5q-7 -62 -56 -106t-109 -44zM61 0l179 1013h251l-180 -1013h-250zM98 -512q-62 0 -98 43.5t-26 106.5q11 61 63 104.5t114 43.5q60 0 96.5 -44t25.5 -104q-10 -62 -62 -106t-113 -44z
" />
    <glyph glyph-name="uni1ECC" unicode="&#x1ecc;" horiz-adv-x="1624" 
d="M736 -20q-280 0 -449.5 159.5t-169.5 432.5q0 168 60 325.5t166.5 280t268 196.5t351.5 74q279 0 449 -159t170 -431q0 -134 -37.5 -263t-111.5 -240t-174.5 -195t-235.5 -132t-287 -48zM746 209q106 0 201 35.5t165.5 97t122 142t78 173t26.5 186.5q0 178 -106 277.5
t-280 99.5q-131 0 -244.5 -54.5t-188.5 -144t-118 -203t-43 -232.5q0 -178 106.5 -277.5t280.5 -99.5zM635 -512q-62 0 -98 43.5t-26 106.5q11 61 63 104.5t114 43.5q60 0 96.5 -44t25.5 -104q-10 -62 -62 -106t-113 -44z" />
    <glyph glyph-name="uni1ECD" unicode="&#x1ecd;" horiz-adv-x="1202" 
d="M523 -20q-209 0 -336 114.5t-127 312.5q0 121 42.5 232.5t120 198t195.5 138t259 51.5q211 0 337.5 -114t126.5 -311q0 -122 -43 -233.5t-121 -198.5t-196 -138.5t-258 -51.5zM529 171q85 0 158.5 38t120 99t73 135t26.5 148q0 113 -65 180t-175 67q-85 0 -157 -38.5
t-118 -99.5t-71.5 -134.5t-25.5 -147.5q0 -115 63 -181t171 -66zM422 -512q-62 0 -98 43.5t-26 106.5q11 61 63 104.5t114 43.5q60 0 96.5 -44t25.5 -104q-10 -62 -62 -106t-113 -44z" />
    <glyph glyph-name="uni1ECE" unicode="&#x1ece;" horiz-adv-x="1624" 
d="M940 1531l23 130q117 21 131 101q6 32 -10 53t-52 21q-46 0 -92 -36l-47 87q76 55 168 55q88 0 132 -48t31 -125q-20 -117 -157 -157l-13 -81h-114zM736 -20q-280 0 -449.5 159.5t-169.5 432.5q0 168 60 325.5t166.5 280t268 196.5t351.5 74q279 0 449 -159t170 -431
q0 -134 -37.5 -263t-111.5 -240t-174.5 -195t-235.5 -132t-287 -48zM746 209q106 0 201 35.5t165.5 97t122 142t78 173t26.5 186.5q0 178 -106 277.5t-280 99.5q-131 0 -244.5 -54.5t-188.5 -144t-118 -203t-43 -232.5q0 -178 106.5 -277.5t280.5 -99.5z" />
    <glyph glyph-name="uni1ECF" unicode="&#x1ecf;" horiz-adv-x="1202" 
d="M649 1093l23 130q116 21 131 101q5 33 -10.5 53.5t-51.5 20.5q-47 0 -92 -36l-47 88q75 54 168 54q88 0 132 -47.5t31 -125.5q-21 -117 -156 -157l-14 -81h-114zM523 -20q-209 0 -336 114.5t-127 312.5q0 121 42.5 232.5t120 198t195.5 138t259 51.5q211 0 337.5 -114
t126.5 -311q0 -122 -43 -233.5t-121 -198.5t-196 -138.5t-258 -51.5zM529 171q85 0 158.5 38t120 99t73 135t26.5 148q0 113 -65 180t-175 67q-85 0 -157 -38.5t-118 -99.5t-71.5 -134.5t-25.5 -147.5q0 -115 63 -181t171 -66z" />
    <glyph glyph-name="uni1ED0" unicode="&#x1ed0;" horiz-adv-x="1624" 
d="M995 2002l321 354l109 -89l-272 -265h-158zM856 1566h-157l274 298h158l170 -298h-159l-107 205zM736 -20q-280 0 -449.5 159.5t-169.5 432.5q0 168 60 325.5t166.5 280t268 196.5t351.5 74q279 0 449 -159t170 -431q0 -134 -37.5 -263t-111.5 -240t-174.5 -195
t-235.5 -132t-287 -48zM746 209q106 0 201 35.5t165.5 97t122 142t78 173t26.5 186.5q0 178 -106 277.5t-280 99.5q-131 0 -244.5 -54.5t-188.5 -144t-118 -203t-43 -232.5q0 -178 106.5 -277.5t280.5 -99.5z" />
    <glyph glyph-name="uni1ED1" unicode="&#x1ed1;" horiz-adv-x="1202" 
d="M715 1635l321 354l110 -90l-273 -264h-158zM576 1186h-158l275 298h158l169 -298h-158l-107 206zM523 -20q-209 0 -336 114.5t-127 312.5q0 121 42.5 232.5t120 198t195.5 138t259 51.5q211 0 337.5 -114t126.5 -311q0 -122 -43 -233.5t-121 -198.5t-196 -138.5
t-258 -51.5zM529 171q85 0 158.5 38t120 99t73 135t26.5 148q0 113 -65 180t-175 67q-85 0 -157 -38.5t-118 -99.5t-71.5 -134.5t-25.5 -147.5q0 -115 63 -181t171 -66z" />
    <glyph glyph-name="uni1ED2" unicode="&#x1ed2;" horiz-adv-x="1624" 
d="M998 2002l-179 265l141 89l196 -354h-158zM856 1566h-157l274 298h158l170 -298h-159l-107 205zM736 -20q-280 0 -449.5 159.5t-169.5 432.5q0 168 60 325.5t166.5 280t268 196.5t351.5 74q279 0 449 -159t170 -431q0 -134 -37.5 -263t-111.5 -240t-174.5 -195
t-235.5 -132t-287 -48zM746 209q106 0 201 35.5t165.5 97t122 142t78 173t26.5 186.5q0 178 -106 277.5t-280 99.5q-131 0 -244.5 -54.5t-188.5 -144t-118 -203t-43 -232.5q0 -178 106.5 -277.5t280.5 -99.5z" />
    <glyph glyph-name="uni1ED3" unicode="&#x1ed3;" horiz-adv-x="1202" 
d="M718 1635l-178 264l140 90l196 -354h-158zM576 1186h-158l275 298h158l169 -298h-158l-107 206zM523 -20q-209 0 -336 114.5t-127 312.5q0 121 42.5 232.5t120 198t195.5 138t259 51.5q211 0 337.5 -114t126.5 -311q0 -122 -43 -233.5t-121 -198.5t-196 -138.5
t-258 -51.5zM529 171q85 0 158.5 38t120 99t73 135t26.5 148q0 113 -65 180t-175 67q-85 0 -157 -38.5t-118 -99.5t-71.5 -134.5t-25.5 -147.5q0 -115 63 -181t171 -66z" />
    <glyph glyph-name="uni1ED4" unicode="&#x1ed4;" horiz-adv-x="1624" 
d="M1016 1967l23 130q117 21 131 101q6 32 -10 53t-52 21q-46 0 -92 -36l-47 87q76 55 168 55q88 0 132 -48t31 -125q-20 -117 -157 -157l-13 -81h-114zM856 1566h-157l274 298h158l170 -298h-159l-107 205zM736 -20q-280 0 -449.5 159.5t-169.5 432.5q0 168 60 325.5
t166.5 280t268 196.5t351.5 74q279 0 449 -159t170 -431q0 -134 -37.5 -263t-111.5 -240t-174.5 -195t-235.5 -132t-287 -48zM746 209q106 0 201 35.5t165.5 97t122 142t78 173t26.5 186.5q0 178 -106 277.5t-280 99.5q-131 0 -244.5 -54.5t-188.5 -144t-118 -203
t-43 -232.5q0 -178 106.5 -277.5t280.5 -99.5z" />
    <glyph glyph-name="uni1ED5" unicode="&#x1ed5;" horiz-adv-x="1202" 
d="M732 1570l23 130q116 21 131 101q5 33 -10.5 53.5t-51.5 20.5q-47 0 -92 -36l-47 88q75 54 168 54q88 0 132 -47.5t31 -125.5q-21 -117 -156 -157l-14 -81h-114zM576 1186h-158l275 298h158l169 -298h-158l-107 206zM523 -20q-209 0 -336 114.5t-127 312.5
q0 121 42.5 232.5t120 198t195.5 138t259 51.5q211 0 337.5 -114t126.5 -311q0 -122 -43 -233.5t-121 -198.5t-196 -138.5t-258 -51.5zM529 171q85 0 158.5 38t120 99t73 135t26.5 148q0 113 -65 180t-175 67q-85 0 -157 -38.5t-118 -99.5t-71.5 -134.5t-25.5 -147.5
q0 -115 63 -181t171 -66z" />
    <glyph glyph-name="uni1ED6" unicode="&#x1ed6;" horiz-adv-x="1624" 
d="M1225 1995q-120 0 -174 115q-22 52 -71 52q-43 0 -75 -42.5t-44 -109.5h-132q23 124 96.5 202.5t173.5 78.5q119 0 173 -114q23 -52 73 -52q44 0 74.5 40.5t42.5 109.5h133q-23 -123 -95 -201.5t-175 -78.5zM856 1566h-157l274 298h158l170 -298h-159l-107 205zM736 -20
q-280 0 -449.5 159.5t-169.5 432.5q0 168 60 325.5t166.5 280t268 196.5t351.5 74q279 0 449 -159t170 -431q0 -134 -37.5 -263t-111.5 -240t-174.5 -195t-235.5 -132t-287 -48zM746 209q106 0 201 35.5t165.5 97t122 142t78 173t26.5 186.5q0 178 -106 277.5t-280 99.5
q-131 0 -244.5 -54.5t-188.5 -144t-118 -203t-43 -232.5q0 -178 106.5 -277.5t280.5 -99.5z" />
    <glyph glyph-name="uni1ED7" unicode="&#x1ed7;" horiz-adv-x="1202" 
d="M927 1627q-108 0 -154 100q-18 43 -57 43q-36 0 -62 -36t-36 -94h-124q20 111 85 181t154 70q108 0 153 -101q17 -42 60 -42q73 0 96 129h124q-19 -109 -83.5 -179.5t-155.5 -70.5zM576 1186h-158l275 298h158l169 -298h-158l-107 206zM523 -20q-209 0 -336 114.5
t-127 312.5q0 121 42.5 232.5t120 198t195.5 138t259 51.5q211 0 337.5 -114t126.5 -311q0 -122 -43 -233.5t-121 -198.5t-196 -138.5t-258 -51.5zM529 171q85 0 158.5 38t120 99t73 135t26.5 148q0 113 -65 180t-175 67q-85 0 -157 -38.5t-118 -99.5t-71.5 -134.5
t-25.5 -147.5q0 -115 63 -181t171 -66z" />
    <glyph glyph-name="uni1ED8" unicode="&#x1ed8;" horiz-adv-x="1624" 
d="M856 1566h-157l274 298h158l170 -298h-159l-107 205zM736 -20q-280 0 -449.5 159.5t-169.5 432.5q0 168 60 325.5t166.5 280t268 196.5t351.5 74q279 0 449 -159t170 -431q0 -134 -37.5 -263t-111.5 -240t-174.5 -195t-235.5 -132t-287 -48zM746 209q106 0 201 35.5
t165.5 97t122 142t78 173t26.5 186.5q0 178 -106 277.5t-280 99.5q-131 0 -244.5 -54.5t-188.5 -144t-118 -203t-43 -232.5q0 -178 106.5 -277.5t280.5 -99.5zM635 -512q-62 0 -98 43.5t-26 106.5q11 61 63 104.5t114 43.5q60 0 96.5 -44t25.5 -104q-10 -62 -62 -106
t-113 -44z" />
    <glyph glyph-name="uni1ED9" unicode="&#x1ed9;" horiz-adv-x="1202" 
d="M576 1186h-158l275 298h158l169 -298h-158l-107 206zM523 -20q-209 0 -336 114.5t-127 312.5q0 121 42.5 232.5t120 198t195.5 138t259 51.5q211 0 337.5 -114t126.5 -311q0 -122 -43 -233.5t-121 -198.5t-196 -138.5t-258 -51.5zM529 171q85 0 158.5 38t120 99t73 135
t26.5 148q0 113 -65 180t-175 67q-85 0 -157 -38.5t-118 -99.5t-71.5 -134.5t-25.5 -147.5q0 -115 63 -181t171 -66zM422 -512q-62 0 -98 43.5t-26 106.5q11 61 63 104.5t114 43.5q60 0 96.5 -44t25.5 -104q-10 -62 -62 -106t-113 -44z" />
    <glyph glyph-name="uni1EDA" unicode="&#x1eda;" horiz-adv-x="1624" 
d="M1349 1831l-272 -265h-158l321 354zM1659 1519h130l-27 -147q-22 -124 -81 -178t-139 -54q-14 0 -21 1q61 -127 61 -283q0 -134 -37.5 -263t-111.5 -240t-174.5 -195t-235.5 -132t-287 -48q-280 0 -449.5 159.5t-169.5 432.5q0 168 60 325.5t166.5 280t268 196.5
t351.5 74q288 0 457 -167l2 3q49 -28 95 -28q54 0 80.5 32.5t39.5 111.5zM746 209q106 0 201 35.5t165.5 97t122 142t78 173t26.5 186.5q0 178 -106 277.5t-280 99.5q-131 0 -244.5 -54.5t-188.5 -144t-118 -203t-43 -232.5q0 -178 106.5 -277.5t280.5 -99.5z" />
    <glyph glyph-name="uni1EDB" unicode="&#x1edb;" horiz-adv-x="1202" 
d="M1063 1422l-273 -264h-158l321 354zM1224 1165h130l-27 -147q-22 -124 -81 -178t-139 -54h-2q36 -81 36 -184q0 -122 -43 -233.5t-121 -198.5t-196 -138.5t-258 -51.5q-209 0 -336 114.5t-127 312.5q0 121 42.5 232.5t120 198t195.5 138t259 51.5q204 0 330 -107
q39 -18 75 -18q54 0 80.5 32.5t39.5 111.5zM529 171q85 0 158.5 38t120 99t73 135t26.5 148q0 113 -65 180t-175 67q-85 0 -157 -38.5t-118 -99.5t-71.5 -134.5t-25.5 -147.5q0 -115 63 -181t171 -66z" />
    <glyph glyph-name="uni1EDC" unicode="&#x1edc;" horiz-adv-x="1624" 
d="M1080 1566h-158l-179 265l141 89zM1659 1519h130l-27 -147q-22 -124 -81 -178t-139 -54q-14 0 -21 1q61 -127 61 -283q0 -134 -37.5 -263t-111.5 -240t-174.5 -195t-235.5 -132t-287 -48q-280 0 -449.5 159.5t-169.5 432.5q0 168 60 325.5t166.5 280t268 196.5t351.5 74
q288 0 457 -167l2 3q49 -28 95 -28q54 0 80.5 32.5t39.5 111.5zM746 209q106 0 201 35.5t165.5 97t122 142t78 173t26.5 186.5q0 178 -106 277.5t-280 99.5q-131 0 -244.5 -54.5t-188.5 -144t-118 -203t-43 -232.5q0 -178 106.5 -277.5t280.5 -99.5z" />
    <glyph glyph-name="uni1EDD" unicode="&#x1edd;" horiz-adv-x="1202" 
d="M793 1158h-158l-178 264l140 90zM1224 1165h130l-27 -147q-22 -124 -81 -178t-139 -54h-2q36 -81 36 -184q0 -122 -43 -233.5t-121 -198.5t-196 -138.5t-258 -51.5q-209 0 -336 114.5t-127 312.5q0 121 42.5 232.5t120 198t195.5 138t259 51.5q204 0 330 -107
q39 -18 75 -18q54 0 80.5 32.5t39.5 111.5zM529 171q85 0 158.5 38t120 99t73 135t26.5 148q0 113 -65 180t-175 67q-85 0 -157 -38.5t-118 -99.5t-71.5 -134.5t-25.5 -147.5q0 -115 63 -181t171 -66z" />
    <glyph glyph-name="uni1EDE" unicode="&#x1ede;" horiz-adv-x="1624" 
d="M1032 1836q-46 0 -92 -36l-47 87q76 55 168 55q88 0 132 -48t31 -125q-20 -117 -157 -157l-13 -81h-114l23 130q117 21 131 101q6 32 -10 53t-52 21zM1659 1519h130l-27 -147q-22 -124 -81 -178t-139 -54q-14 0 -21 1q61 -127 61 -283q0 -134 -37.5 -263t-111.5 -240
t-174.5 -195t-235.5 -132t-287 -48q-280 0 -449.5 159.5t-169.5 432.5q0 168 60 325.5t166.5 280t268 196.5t351.5 74q288 0 457 -167l2 3q49 -28 95 -28q54 0 80.5 32.5t39.5 111.5zM746 209q106 0 201 35.5t165.5 97t122 142t78 173t26.5 186.5q0 178 -106 277.5
t-280 99.5q-131 0 -244.5 -54.5t-188.5 -144t-118 -203t-43 -232.5q0 -178 106.5 -277.5t280.5 -99.5z" />
    <glyph glyph-name="uni1EDF" unicode="&#x1edf;" horiz-adv-x="1202" 
d="M741 1398q-47 0 -92 -36l-47 88q75 54 168 54q88 0 132 -47.5t31 -125.5q-21 -117 -156 -157l-14 -81h-114l23 130q116 21 131 101q5 33 -10.5 53.5t-51.5 20.5zM1224 1165h130l-27 -147q-22 -124 -81 -178t-139 -54h-2q36 -81 36 -184q0 -122 -43 -233.5t-121 -198.5
t-196 -138.5t-258 -51.5q-209 0 -336 114.5t-127 312.5q0 121 42.5 232.5t120 198t195.5 138t259 51.5q204 0 330 -107q39 -18 75 -18q54 0 80.5 32.5t39.5 111.5zM529 171q85 0 158.5 38t120 99t73 135t26.5 148q0 113 -65 180t-175 67q-85 0 -157 -38.5t-118 -99.5
t-71.5 -134.5t-25.5 -147.5q0 -115 63 -181t171 -66z" />
    <glyph glyph-name="uni1EE0" unicode="&#x1ee0;" horiz-adv-x="1624" 
d="M904 1726q-43 0 -75 -42.5t-44 -109.5h-132q23 124 96.5 202.5t173.5 78.5q119 0 173 -114q23 -52 73 -52q44 0 74.5 40.5t42.5 109.5h133q-23 -123 -95 -201.5t-175 -78.5q-120 0 -174 115q-22 52 -71 52zM1659 1519h130l-27 -147q-22 -124 -81 -178t-139 -54
q-14 0 -21 1q61 -127 61 -283q0 -134 -37.5 -263t-111.5 -240t-174.5 -195t-235.5 -132t-287 -48q-280 0 -449.5 159.5t-169.5 432.5q0 168 60 325.5t166.5 280t268 196.5t351.5 74q288 0 457 -167l2 3q49 -28 95 -28q54 0 80.5 32.5t39.5 111.5zM746 209q106 0 201 35.5
t165.5 97t122 142t78 173t26.5 186.5q0 178 -106 277.5t-280 99.5q-131 0 -244.5 -54.5t-188.5 -144t-118 -203t-43 -232.5q0 -178 106.5 -277.5t280.5 -99.5z" />
    <glyph glyph-name="uni1EE1" unicode="&#x1ee1;" horiz-adv-x="1202" 
d="M633 1293q-36 0 -62 -36t-36 -94h-124q20 111 85 181t154 70q108 0 153 -101q17 -42 60 -42q73 0 96 129h124q-19 -109 -83.5 -179.5t-155.5 -70.5q-108 0 -154 100q-18 43 -57 43zM1224 1165h130l-27 -147q-22 -124 -81 -178t-139 -54h-2q36 -81 36 -184
q0 -122 -43 -233.5t-121 -198.5t-196 -138.5t-258 -51.5q-209 0 -336 114.5t-127 312.5q0 121 42.5 232.5t120 198t195.5 138t259 51.5q204 0 330 -107q39 -18 75 -18q54 0 80.5 32.5t39.5 111.5zM529 171q85 0 158.5 38t120 99t73 135t26.5 148q0 113 -65 180t-175 67
q-85 0 -157 -38.5t-118 -99.5t-71.5 -134.5t-25.5 -147.5q0 -115 63 -181t171 -66z" />
    <glyph glyph-name="uni1EE2" unicode="&#x1ee2;" horiz-adv-x="1624" 
d="M1659 1519h130l-27 -147q-22 -124 -81 -178t-139 -54q-14 0 -21 1q61 -127 61 -283q0 -134 -37.5 -263t-111.5 -240t-174.5 -195t-235.5 -132t-287 -48q-280 0 -449.5 159.5t-169.5 432.5q0 168 60 325.5t166.5 280t268 196.5t351.5 74q288 0 457 -167l2 3q49 -28 95 -28
q54 0 80.5 32.5t39.5 111.5zM746 209q106 0 201 35.5t165.5 97t122 142t78 173t26.5 186.5q0 178 -106 277.5t-280 99.5q-131 0 -244.5 -54.5t-188.5 -144t-118 -203t-43 -232.5q0 -178 106.5 -277.5t280.5 -99.5zM688 -214q60 0 96.5 -44t25.5 -104q-10 -62 -62 -106
t-113 -44q-62 0 -98 43.5t-26 106.5q11 61 63 104.5t114 43.5z" />
    <glyph glyph-name="uni1EE3" unicode="&#x1ee3;" horiz-adv-x="1202" 
d="M1224 1165h130l-27 -147q-22 -124 -81 -178t-139 -54h-2q36 -81 36 -184q0 -122 -43 -233.5t-121 -198.5t-196 -138.5t-258 -51.5q-209 0 -336 114.5t-127 312.5q0 121 42.5 232.5t120 198t195.5 138t259 51.5q204 0 330 -107q39 -18 75 -18q54 0 80.5 32.5t39.5 111.5z
M529 171q85 0 158.5 38t120 99t73 135t26.5 148q0 113 -65 180t-175 67q-85 0 -157 -38.5t-118 -99.5t-71.5 -134.5t-25.5 -147.5q0 -115 63 -181t171 -66zM475 -214q60 0 96.5 -44t25.5 -104q-10 -62 -62 -106t-113 -44q-62 0 -98 43.5t-26 106.5q11 61 63 104.5t114 43.5z
" />
    <glyph glyph-name="uni1EE4" unicode="&#x1ee4;" horiz-adv-x="1405" 
d="M623 -20q-216 0 -347 106.5t-131 301.5q0 49 11 109l165 931h245l-160 -914q-9 -50 -9 -91q0 -114 62.5 -168.5t170.5 -54.5q138 0 240 84t131 246l159 898h246l-167 -948q-30 -165 -121 -279.5t-217 -167.5t-278 -53zM520 -512q-62 0 -98 43.5t-26 106.5q11 61 63 104.5
t114 43.5q60 0 96.5 -44t25.5 -104q-10 -62 -62 -106t-113 -44z" />
    <glyph glyph-name="uni1EE5" unicode="&#x1ee5;" horiz-adv-x="1158" 
d="M860 1008h236l-178 -1008h-223l19 144q-63 -77 -148.5 -120.5t-183.5 -43.5q-136 0 -213 72t-77 201q0 35 8 85l119 670h236l-111 -624q-6 -36 -6 -62q0 -73 39.5 -107.5t105.5 -34.5q102 0 177 63.5t95 175.5h2zM456 -214q60 0 96.5 -44t25.5 -104q-10 -62 -62 -106
t-113 -44q-62 0 -98 43.5t-26 106.5q11 61 63 104.5t114 43.5z" />
    <glyph glyph-name="uni1EE6" unicode="&#x1ee6;" horiz-adv-x="1405" 
d="M827 1531l23 130q117 21 131 101q6 32 -10 53t-52 21q-45 0 -92 -36l-47 87q76 55 168 55q88 0 132 -48t31 -125q-20 -117 -157 -157l-13 -81h-114zM623 -20q-216 0 -347 106.5t-131 301.5q0 49 11 109l165 931h245l-160 -914q-9 -50 -9 -91q0 -114 62.5 -168.5
t170.5 -54.5q138 0 240 84t131 246l159 898h246l-167 -948q-30 -165 -121 -279.5t-217 -167.5t-278 -53z" />
    <glyph glyph-name="uni1EE7" unicode="&#x1ee7;" horiz-adv-x="1158" 
d="M724 1399q-47 0 -92 -36l-47 88q75 54 168 54q88 0 132 -47.5t31 -125.5q-21 -117 -156 -157l-14 -81h-114l23 130q116 21 131 101q5 33 -10.5 53.5t-51.5 20.5zM860 1008h236l-178 -1008h-223l19 144q-63 -77 -148.5 -120.5t-183.5 -43.5q-136 0 -213 72t-77 201
q0 35 8 85l119 670h236l-111 -624q-6 -36 -6 -62q0 -73 39.5 -107.5t105.5 -34.5q102 0 177 63.5t95 175.5h2z" />
    <glyph glyph-name="uni1EE8" unicode="&#x1ee8;" horiz-adv-x="1405" 
d="M1236 1831l-272 -265h-158l321 354zM1589 1582h130l-27 -147q-22 -124 -81 -178t-139 -54q-48 0 -102 20l-131 -743q-30 -165 -121 -279.5t-217 -167.5t-278 -53q-216 0 -347 106.5t-131 301.5q0 49 11 109l165 931h245l-160 -914q-9 -50 -9 -91q0 -114 62.5 -168.5
t170.5 -54.5q138 0 240 84t131 246l159 898h246l-17 -98q29 -11 58 -11q54 0 80.5 32.5t39.5 111.5z" />
    <glyph glyph-name="uni1EE9" unicode="&#x1ee9;" horiz-adv-x="1158" 
d="M1046 1423l-273 -264h-158l321 354zM1289 1162h130l-27 -147q-22 -124 -81 -178t-139 -54q-52 0 -112 23l-142 -806h-223l19 144q-63 -77 -148.5 -120.5t-183.5 -43.5q-136 0 -213 72t-77 201q0 35 8 85l119 670h236l-111 -624q-6 -36 -6 -62q0 -73 39.5 -107.5
t105.5 -34.5q102 0 177 63.5t95 175.5h2l103 589h236l-17 -94q34 -15 68 -15q54 0 80.5 32.5t39.5 111.5z" />
    <glyph glyph-name="uni1EEA" unicode="&#x1eea;" horiz-adv-x="1405" 
d="M967 1566h-158l-179 265l141 89zM1589 1582h130l-27 -147q-22 -124 -81 -178t-139 -54q-48 0 -102 20l-131 -743q-30 -165 -121 -279.5t-217 -167.5t-278 -53q-216 0 -347 106.5t-131 301.5q0 49 11 109l165 931h245l-160 -914q-9 -50 -9 -91q0 -114 62.5 -168.5
t170.5 -54.5q138 0 240 84t131 246l159 898h246l-17 -98q29 -11 58 -11q54 0 80.5 32.5t39.5 111.5z" />
    <glyph glyph-name="uni1EEB" unicode="&#x1eeb;" horiz-adv-x="1158" 
d="M776 1159h-158l-178 264l140 90zM1289 1162h130l-27 -147q-22 -124 -81 -178t-139 -54q-52 0 -112 23l-142 -806h-223l19 144q-63 -77 -148.5 -120.5t-183.5 -43.5q-136 0 -213 72t-77 201q0 35 8 85l119 670h236l-111 -624q-6 -36 -6 -62q0 -73 39.5 -107.5t105.5 -34.5
q102 0 177 63.5t95 175.5h2l103 589h236l-17 -94q34 -15 68 -15q54 0 80.5 32.5t39.5 111.5z" />
    <glyph glyph-name="uni1EEC" unicode="&#x1eec;" horiz-adv-x="1405" 
d="M919 1836q-45 0 -92 -36l-47 87q76 55 168 55q88 0 132 -48t31 -125q-20 -117 -157 -157l-13 -81h-114l23 130q117 21 131 101q6 32 -10 53t-52 21zM1589 1582h130l-27 -147q-22 -124 -81 -178t-139 -54q-48 0 -102 20l-131 -743q-30 -165 -121 -279.5t-217 -167.5
t-278 -53q-216 0 -347 106.5t-131 301.5q0 49 11 109l165 931h245l-160 -914q-9 -50 -9 -91q0 -114 62.5 -168.5t170.5 -54.5q138 0 240 84t131 246l159 898h246l-17 -98q29 -11 58 -11q54 0 80.5 32.5t39.5 111.5z" />
    <glyph glyph-name="uni1EED" unicode="&#x1eed;" horiz-adv-x="1158" 
d="M724 1399q-47 0 -92 -36l-47 88q75 54 168 54q88 0 132 -47.5t31 -125.5q-21 -117 -156 -157l-14 -81h-114l23 130q116 21 131 101q5 33 -10.5 53.5t-51.5 20.5zM1289 1162h130l-27 -147q-22 -124 -81 -178t-139 -54q-52 0 -112 23l-142 -806h-223l19 144
q-63 -77 -148.5 -120.5t-183.5 -43.5q-136 0 -213 72t-77 201q0 35 8 85l119 670h236l-111 -624q-6 -36 -6 -62q0 -73 39.5 -107.5t105.5 -34.5q102 0 177 63.5t95 175.5h2l103 589h236l-17 -94q34 -15 68 -15q54 0 80.5 32.5t39.5 111.5z" />
    <glyph glyph-name="uni1EEE" unicode="&#x1eee;" horiz-adv-x="1405" 
d="M791 1726q-43 0 -75 -42.5t-44 -109.5h-132q23 124 96.5 202.5t173.5 78.5q119 0 173 -114q23 -52 73 -52q44 0 74.5 40.5t42.5 109.5h133q-23 -123 -95 -201.5t-175 -78.5q-120 0 -174 115q-22 52 -71 52zM1589 1582h130l-27 -147q-22 -124 -81 -178t-139 -54
q-48 0 -102 20l-131 -743q-30 -165 -121 -279.5t-217 -167.5t-278 -53q-216 0 -347 106.5t-131 301.5q0 49 11 109l165 931h245l-160 -914q-9 -50 -9 -91q0 -114 62.5 -168.5t170.5 -54.5q138 0 240 84t131 246l159 898h246l-17 -98q29 -11 58 -11q54 0 80.5 32.5
t39.5 111.5z" />
    <glyph glyph-name="uni1EEF" unicode="&#x1eef;" horiz-adv-x="1158" 
d="M616 1294q-36 0 -62 -36t-36 -94h-124q20 111 85 181t154 70q108 0 153 -101q17 -42 60 -42q73 0 96 129h124q-19 -109 -83.5 -179.5t-155.5 -70.5q-108 0 -154 100q-18 43 -57 43zM1289 1162h130l-27 -147q-22 -124 -81 -178t-139 -54q-52 0 -112 23l-142 -806h-223
l19 144q-63 -77 -148.5 -120.5t-183.5 -43.5q-136 0 -213 72t-77 201q0 35 8 85l119 670h236l-111 -624q-6 -36 -6 -62q0 -73 39.5 -107.5t105.5 -34.5q102 0 177 63.5t95 175.5h2l103 589h236l-17 -94q34 -15 68 -15q54 0 80.5 32.5t39.5 111.5z" />
    <glyph glyph-name="uni1EF0" unicode="&#x1ef0;" horiz-adv-x="1405" 
d="M1589 1582h130l-27 -147q-22 -124 -81 -178t-139 -54q-48 0 -102 20l-131 -743q-30 -165 -121 -279.5t-217 -167.5t-278 -53q-216 0 -347 106.5t-131 301.5q0 49 11 109l165 931h245l-160 -914q-9 -50 -9 -91q0 -114 62.5 -168.5t170.5 -54.5q138 0 240 84t131 246
l159 898h246l-17 -98q29 -11 58 -11q54 0 80.5 32.5t39.5 111.5zM573 -214q60 0 96.5 -44t25.5 -104q-10 -62 -62 -106t-113 -44q-62 0 -98 43.5t-26 106.5q11 61 63 104.5t114 43.5z" />
    <glyph glyph-name="uni1EF1" unicode="&#x1ef1;" horiz-adv-x="1158" 
d="M1289 1162h130l-27 -147q-22 -124 -81 -178t-139 -54q-52 0 -112 23l-142 -806h-223l19 144q-63 -77 -148.5 -120.5t-183.5 -43.5q-136 0 -213 72t-77 201q0 35 8 85l119 670h236l-111 -624q-6 -36 -6 -62q0 -73 39.5 -107.5t105.5 -34.5q102 0 177 63.5t95 175.5h2
l103 589h236l-17 -94q34 -15 68 -15q54 0 80.5 32.5t39.5 111.5zM456 -214q60 0 96.5 -44t25.5 -104q-10 -62 -62 -106t-113 -44q-62 0 -98 43.5t-26 106.5q11 61 63 104.5t114 43.5z" />
    <glyph glyph-name="Ygrave" unicode="&#x1ef2;" horiz-adv-x="1221" 
d="M874 1566h-158l-179 265l141 89zM1367 1428l-606 -752l-119 -676h-248l122 683l-338 745h264l226 -529l414 529h285z" />
    <glyph glyph-name="ygrave" unicode="&#x1ef3;" horiz-adv-x="1044" 
d="M714 1159h-158l-178 264l140 90zM878 1008h248l-866 -1482h-246l310 518l-229 964h253l133 -712z" />
    <glyph glyph-name="uni1EF4" unicode="&#x1ef4;" horiz-adv-x="1221" 
d="M1367 1428l-606 -752l-119 -676h-248l122 683l-338 745h264l226 -529l414 529h285zM483 -214q60 0 96.5 -44t25.5 -104q-10 -62 -62 -106t-113 -44q-62 0 -98 43.5t-26 106.5q11 61 63 104.5t114 43.5z" />
    <glyph glyph-name="uni1EF5" unicode="&#x1ef5;" horiz-adv-x="1044" 
d="M878 1008h248l-866 -1482h-246l310 518l-229 964h253l133 -712zM752 -214q60 0 96.5 -44t25.5 -104q-10 -62 -62 -106t-113 -44q-62 0 -98 43.5t-26 106.5q11 61 63 104.5t114 43.5z" />
    <glyph glyph-name="uni1EF6" unicode="&#x1ef6;" horiz-adv-x="1221" 
d="M826 1836q-46 0 -92 -36l-47 87q76 55 168 55q88 0 132 -48t31 -125q-20 -117 -157 -157l-13 -81h-114l23 130q117 21 131 101q6 32 -10 53t-52 21zM1367 1428l-606 -752l-119 -676h-248l122 683l-338 745h264l226 -529l414 529h285z" />
    <glyph glyph-name="uni1EF7" unicode="&#x1ef7;" horiz-adv-x="1044" 
d="M662 1399q-47 0 -92 -36l-47 88q75 54 168 54q88 0 132 -47.5t31 -125.5q-21 -117 -156 -157l-14 -81h-114l23 130q116 21 131 101q5 33 -10.5 53.5t-51.5 20.5zM878 1008h248l-866 -1482h-246l310 518l-229 964h253l133 -712z" />
    <glyph glyph-name="uni1EF8" unicode="&#x1ef8;" horiz-adv-x="1221" 
d="M698 1726q-43 0 -75 -42.5t-44 -109.5h-132q23 124 96.5 202.5t173.5 78.5q119 0 173 -114q23 -52 73 -52q44 0 74.5 40.5t42.5 109.5h133q-23 -123 -95 -201.5t-175 -78.5q-120 0 -174 115q-22 52 -71 52zM1367 1428l-606 -752l-119 -676h-248l122 683l-338 745h264
l226 -529l414 529h285z" />
    <glyph glyph-name="uni1EF9" unicode="&#x1ef9;" horiz-adv-x="1044" 
d="M554 1294q-36 0 -62 -36t-36 -94h-124q20 111 85 181t154 70q108 0 153 -101q17 -42 60 -42q73 0 96 129h124q-19 -109 -83.5 -179.5t-155.5 -70.5q-108 0 -154 100q-18 43 -57 43zM878 1008h248l-866 -1482h-246l310 518l-229 964h253l133 -712z" />
    <glyph glyph-name="endash" unicode="&#x2013;" horiz-adv-x="1317" 
d="M132 428l37 209h1024l-37 -209h-1024z" />
    <glyph glyph-name="emdash" unicode="&#x2014;" horiz-adv-x="2341" 
d="M132 428l37 209h2048l-37 -209h-2048z" />
    <glyph glyph-name="quoteleft" unicode="&#x2018;" horiz-adv-x="589" 
d="M133 790l317 643h182l-237 -643h-262z" />
    <glyph glyph-name="quoteright" unicode="&#x2019;" horiz-adv-x="588" 
d="M169 790l237 643h262l-316 -643h-183z" />
    <glyph glyph-name="quotesinglbase" unicode="&#x201a;" horiz-adv-x="585" 
d="M-37 -366l238 643h261l-315 -643h-184z" />
    <glyph glyph-name="quotedblleft" unicode="&#x201c;" horiz-adv-x="1023" 
d="M133 790l317 643h182l-237 -643h-262zM567 790l317 643h182l-237 -643h-262z" />
    <glyph glyph-name="quotedblright" unicode="&#x201d;" horiz-adv-x="1022" 
d="M169 790l237 643h262l-316 -643h-183zM602 790l238 643h262l-316 -643h-184z" />
    <glyph glyph-name="quotedblbase" unicode="&#x201e;" horiz-adv-x="1021" 
d="M-37 -366l238 643h261l-315 -643h-184zM399 -366l238 643h261l-316 -643h-183z" />
    <glyph glyph-name="dagger" unicode="&#x2020;" horiz-adv-x="981" 
d="M1011 1058l-28 -161h-347l-209 -1185h-163l209 1185h-337l28 161h337l66 375h163l-66 -375h347z" />
    <glyph glyph-name="daggerdbl" unicode="&#x2021;" horiz-adv-x="1056" 
d="M1021 897h-347l-112 -635h346l-29 -161h-346l-68 -389h-163l68 389h-338l29 161h338l112 635h-337l27 161h338l66 375h163l-66 -375h347z" />
    <glyph glyph-name="bullet" unicode="&#x2022;" horiz-adv-x="886" 
d="M437 372q-129 0 -206.5 92t-54.5 224q20 114 119 197.5t214 83.5q126 0 203.5 -95t54.5 -222q-20 -118 -117.5 -199t-212.5 -81z" />
    <glyph glyph-name="ellipsis" unicode="&#x2026;" horiz-adv-x="1948" 
d="M242 -20q-67 0 -107 49t-29 117q10 54 55.5 92.5t99.5 38.5q68 0 108.5 -50t27.5 -117q-10 -54 -55.5 -92t-99.5 -38zM901 -20q-67 0 -107 49t-29 117q10 54 55.5 92.5t99.5 38.5q68 0 108.5 -50t27.5 -117q-10 -54 -55.5 -92t-99.5 -38zM1552 -20q-67 0 -107 49.5
t-28 116.5q10 54 55.5 92.5t98.5 38.5q67 0 108 -49.5t29 -117.5q-10 -54 -55.5 -92t-100.5 -38z" />
    <glyph glyph-name="perthousand" unicode="&#x2030;" horiz-adv-x="2364" 
d="M477 810q-128 0 -204.5 79.5t-76.5 199.5q0 87 44.5 170t129.5 138.5t188 55.5q128 0 204.5 -80t76.5 -199q0 -88 -44 -170.5t-129 -138t-189 -55.5zM231 -1l1008 1435h219l-1009 -1435h-218zM489 980q79 0 130.5 55.5t51.5 128.5q0 50 -34 85t-89 35q-79 0 -131 -55.5
t-52 -129.5q0 -52 33 -85.5t91 -33.5zM1143 -17q-128 0 -205 79.5t-77 198.5q0 65 26.5 130t72.5 117t115.5 84.5t148.5 32.5q126 0 202.5 -79t76.5 -197q0 -66 -26 -131t-71.5 -117.5t-114.5 -85t-148 -32.5zM1885 -17q-128 0 -205 79.5t-77 198.5q0 65 26.5 130t72.5 117
t115.5 84.5t148.5 32.5q126 0 202.5 -79t76.5 -197q0 -66 -26 -131t-71.5 -117.5t-114.5 -85t-148 -32.5zM1154 153q78 0 131 56t53 129q0 49 -34.5 83.5t-90.5 34.5q-79 0 -131 -55t-52 -129q0 -51 33.5 -85t90.5 -34zM1896 153q78 0 131 56t53 129q0 49 -34.5 83.5
t-90.5 34.5q-79 0 -131 -55t-52 -129q0 -51 33.5 -85t90.5 -34z" />
    <glyph glyph-name="guilsinglleft" unicode="&#x2039;" horiz-adv-x="617" 
d="M315 260l-248 376l373 377h211l-381 -377l242 -376h-197z" />
    <glyph glyph-name="guilsinglright" unicode="&#x203a;" horiz-adv-x="614" 
d="M10 260l381 376l-242 377h196l249 -377l-375 -376h-209z" />
    <glyph glyph-name="fraction" unicode="&#x2044;" horiz-adv-x="493" 
d="M-362 0l1138 1536h171l-1137 -1536h-172z" />
    <glyph glyph-name="Euro" unicode="&#x20ac;" horiz-adv-x="1538" 
d="M827 218q109 0 205 56t162 151l202 -156q-113 -136 -264 -212.5t-314 -76.5q-239 0 -387.5 134t-160.5 385h-152l24 140h131q6 79 24 154h-127l26 142h143q42 112 107 205t152.5 163.5t202 110t244.5 39.5q173 0 303 -82t198 -220l-238 -125q-67 190 -273 190
q-146 0 -253.5 -75.5t-172.5 -205.5h432l-26 -142h-460q-21 -81 -28 -154h461l-25 -140h-440q11 -146 91.5 -213.5t212.5 -67.5z" />
    <glyph glyph-name="uni2113" unicode="&#x2113;" horiz-adv-x="1145" 
d="M555 -13q-162 0 -249.5 90.5t-81.5 247.5q-34 -36 -120 -87l-58 137q24 16 92 60.5t102 68.5l92 480q23 130 68 226.5t104.5 152.5t126 83t142.5 27q131 0 197 -75t66 -195q0 -78 -24.5 -154.5t-84.5 -169t-171.5 -201t-274.5 -230.5q-16 -80 -17 -96q-4 -84 37 -127.5
t113 -43.5q89 0 176 57.5t150 137.5l96 -121q-198 -268 -481 -268zM511 676q361 309 361 536q0 96 -86 96q-65 0 -124.5 -75t-88.5 -237z" />
    <glyph glyph-name="uni2116" unicode="&#x2116;" horiz-adv-x="2929" 
d="M1234 404l199 1132h258l-271 -1536h-257l-569 1137l-201 -1137h-257l271 1536h257zM2421 1451q115 0 205.5 -37t145.5 -100.5t83 -144t28 -172.5t-26.5 -183.5t-79.5 -174.5t-126.5 -147t-175 -102t-216.5 -38t-205.5 37t-145.5 101t-83.5 144.5t-28.5 172.5t26.5 183.5
t80 174.5t127 146.5t175 101.5t216.5 38zM2262 564q84 0 156.5 39.5t119.5 102.5t73.5 138.5t26.5 148.5q0 107 -57 177t-167 70q-83 0 -154.5 -40t-118 -103t-72.5 -138.5t-26 -148.5q0 -107 55.5 -176.5t163.5 -69.5zM1719 0l30 164h923l-29 -164h-924z" />
    <glyph glyph-name="trademark" unicode="&#x2122;" horiz-adv-x="1618" 
d="M263 1425v111h456v-111h-167v-607h-122v607h-167zM1382 1536h129v-718h-121v513l-225 -371l-226 373v-515h-122v718h132l216 -362z" />
    <glyph glyph-name="estimated" unicode="&#x212e;" horiz-adv-x="1952" 
d="M1042 -18q-178 0 -340 62t-279.5 167.5t-186.5 250.5t-69 304q0 215 117 397t318.5 287.5t439.5 105.5q179 0 341 -62.5t279.5 -168t186.5 -252t69 -307.5v-21h-1417q-12 0 -12 -8v-430q0 -24 18 -49q106 -109 245 -171t292 -62q167 0 313.5 69.5t251.5 192.5h125
q-119 -141 -301.5 -223t-390.5 -82zM501 788h1087q9 0 9 15v430q0 33 -21 51q-106 105 -243.5 165t-288.5 60t-289 -61.5t-246 -169.5q-20 -23 -20 -53v-422q0 -15 12 -15z" />
    <glyph glyph-name="partialdiff" unicode="&#x2202;" horiz-adv-x="1185" 
d="M504 1454q120 24 226 -3.5t181 -97t125.5 -175.5t59.5 -238.5t-18 -285.5q-56 -288 -232.5 -468t-401.5 -180q-124 0 -211 49t-124.5 133t-23 202.5t85.5 251.5q64 113 150 195.5t179 123t192 46t189 -35.5q-17 170 -117.5 252.5t-276.5 46.5zM451 170q57 0 117 34.5
t116 98t102.5 164.5t72.5 223q12 57 18 107q-131 80 -269.5 12.5t-233.5 -257.5q-48 -87 -63 -161t0 -121.5t51 -73.5t89 -26z" />
    <glyph glyph-name="emptyset" unicode="&#x2205;" horiz-adv-x="1492" 
d="M762 -16q-226 0 -396 146l-90 -89l-69 70l89 89q-146 170 -146 396q0 166 82 307t223 223t307 82q226 0 396 -146l89 89l70 -70l-89 -89q146 -170 146 -396q0 -166 -82 -307t-223 -223t-307 -82zM438 341l578 579q-107 87 -254 87q-172 0 -291.5 -120t-119.5 -291
q0 -146 87 -255zM762 185q171 0 291 119.5t120 291.5q0 146 -87 255l-579 -579q109 -87 255 -87z" />
    <glyph glyph-name="product" unicode="&#x220f;" horiz-adv-x="1657" 
d="M158 0l213 1211h-116l39 222h1396l-39 -222h-118l-213 -1211h-220l214 1211h-720l-213 -1211h-223z" />
    <glyph glyph-name="summation" unicode="&#x2211;" horiz-adv-x="1392" 
d="M12 1l25 160l718 606l-499 607l27 162h1185l-35 -196h-851l461 -573l-657 -572h846l-35 -194h-1185z" />
    <glyph glyph-name="minus" unicode="&#x2212;" horiz-adv-x="1288" 
d="M256 598v193h843v-193h-843z" />
    <glyph glyph-name="radical" unicode="&#x221a;" horiz-adv-x="1431" 
d="M359 0l-101 678h-149l36 208h293l85 -567l799 1217h234l-1008 -1536h-189z" />
    <glyph glyph-name="infinity" unicode="&#x221e;" horiz-adv-x="1688" 
d="M484 273q-131 0 -217.5 90.5t-91.5 232.5q5 142 91.5 232.5t217.5 90.5q181 0 374 -201q192 201 375 201q137 0 220 -87.5t87 -235.5q-4 -148 -87 -235.5t-220 -87.5q-183 0 -375 200q-194 -200 -374 -200zM484 439q55 0 124 41t139 116q-70 75 -139 115.5t-124 40.5
q-59 0 -101 -44.5t-43 -111.5q1 -68 43 -112.5t101 -44.5zM1233 439q60 0 100.5 43.5t41.5 113.5q-1 70 -41.5 113t-100.5 43q-115 0 -265 -156q151 -157 265 -157z" />
    <glyph glyph-name="integral" unicode="&#x222b;" horiz-adv-x="929" 
d="M-93 -457l27 237q152 0 225.5 60.5t97.5 202.5l193 1096q24 140 126 227t234 87q62 0 121 -21.5t97 -62.5l-118 -174q-34 39 -82 39q-56 0 -96 -41.5t-55 -116.5l-188 -1067q-38 -222 -195 -344t-387 -122z" />
    <glyph glyph-name="approxequal" unicode="&#x2248;" horiz-adv-x="1379" 
d="M927 681q-50 0 -94.5 13.5t-80 39.5t-56.5 45t-47 47q-7 8 -10 11q-61 64 -116 64q-66 0 -104.5 -56t-42.5 -147h-181q4 175 91.5 280t238.5 105q80 0 140.5 -35.5t123.5 -113.5q20 -25 32.5 -37.5t38 -26t53.5 -13.5q61 0 99.5 53.5t42.5 146.5h179q-5 -166 -86 -271
t-221 -105zM927 208q-51 0 -96.5 14t-81 40.5t-56.5 46t-46 46.5q-5 6 -8 9q-31 34 -56 49.5t-60 14.5q-68 -2 -105.5 -56.5t-41.5 -146.5h-181q4 177 92.5 281.5t237.5 104.5q77 0 137.5 -35t126.5 -113q22 -26 33 -38t37 -26.5t54 -14.5q61 0 99.5 53.5t42.5 148.5h179
q-5 -166 -86 -272t-221 -106z" />
    <glyph glyph-name="notequal" unicode="&#x2260;" horiz-adv-x="1232" 
d="M180 0l200 389h-195v193h294l122 235h-416v194h514l179 345h187l-178 -345h228v-194h-328l-121 -235h449v-193h-548l-201 -389h-186z" />
    <glyph glyph-name="lessequal" unicode="&#x2264;" horiz-adv-x="1462" 
d="M1291 1474v-214l-918 -407l918 -408v-216l-1130 509v232zM161 0v166h1130v-166h-1130z" />
    <glyph glyph-name="greaterequal" unicode="&#x2265;" horiz-adv-x="1523" 
d="M235 1474l1131 -504v-232l-1131 -509v216l918 408l-918 407v214zM235 0v166h1131v-166h-1131z" />
    <glyph glyph-name="lozenge" unicode="&#x25ca;" horiz-adv-x="1359" 
d="M717 106l-618 617l618 618l617 -616zM718 383l339 342l-339 339l-342 -341z" />
    <glyph glyph-name="uniF8FF" unicode="&#xf8ff;" horiz-adv-x="1806" 
d="M951 0q-158 0 -302 62t-248 166t-166 248t-62 302t62 302.5t166 248.5t248 165.5t302 61.5t302.5 -61.5t248.5 -165.5t165.5 -248.5t61.5 -302.5t-61.5 -302t-165.5 -248t-248.5 -166t-302.5 -62zM951 74q143 0 273.5 56t225 150.5t150.5 224.5t56 273q0 191 -94.5 353.5
t-257 257t-353.5 94.5q-143 0 -273 -56t-224.5 -150.5t-150.5 -225t-56 -273.5t56 -273t150.5 -224.5t224.5 -150.5t273 -56zM1359 444q-14 0 -24 13l-297 295q-11 12 -11.5 27.5t10.5 25.5l297 297q10 10 25 10t26 -10q11 -11 11 -26.5t-11 -26.5l-270 -271l270 -270
q24 -22 0 -51q-10 -13 -26 -13zM544 444q-16 0 -26.5 11t-10.5 26v594q0 16 10.5 26.5t26.5 10.5q15 0 25.5 -10.5t10.5 -26.5v-594q0 -15 -10.5 -26t-25.5 -11zM951 444q-15 0 -26 11t-11 26v594q0 16 11 26.5t26 10.5q16 0 26.5 -10.5t10.5 -26.5v-594q0 -15 -10.5 -26
t-26.5 -11zM654 741q-15 0 -26 11t-11 26q0 16 11 26.5t26 10.5h187q15 0 25.5 -10.5t10.5 -26.5q0 -15 -10.5 -26t-25.5 -11h-187z" />
    <glyph glyph-name="G.ss02" horiz-adv-x="1582" 
d="M744 -20q-162 0 -290.5 53t-210 149t-112.5 237.5t-1 311.5q38 219 159.5 384t297 251t379.5 86q209 0 360.5 -90t216.5 -253l-240 -107q-39 113 -128.5 167t-216.5 54q-210 0 -370.5 -139.5t-202.5 -381.5q-40 -229 63 -361t316 -132q177 0 315.5 97t176.5 254l-422 -9
l37 212l669 -9q-8 -82 -28 -175q-35 -149 -111 -265t-179.5 -188t-224.5 -109t-253 -37z" />
    <glyph glyph-name="Gbreve.ss02" horiz-adv-x="1582" 
d="M997 1571q-166 0 -249 69t-56 218h146q-15 -84 34 -125.5t146 -41.5q99 0 162.5 41t78.5 126h146q-27 -149 -134 -218t-274 -69zM744 -20q-162 0 -290.5 53t-210 149t-112.5 237.5t-1 311.5q38 219 159.5 384t297 251t379.5 86q209 0 360.5 -90t216.5 -253l-240 -107
q-39 113 -128.5 167t-216.5 54q-210 0 -370.5 -139.5t-202.5 -381.5q-40 -229 63 -361t316 -132q177 0 315.5 97t176.5 254l-422 -9l37 212l669 -9q-8 -82 -28 -175q-35 -149 -111 -265t-179.5 -188t-224.5 -109t-253 -37z" />
    <glyph glyph-name="Gcommaaccent.ss02" horiz-adv-x="1582" 
d="M744 -20q-162 0 -290.5 53t-210 149t-112.5 237.5t-1 311.5q38 219 159.5 384t297 251t379.5 86q209 0 360.5 -90t216.5 -253l-240 -107q-39 113 -128.5 167t-216.5 54q-210 0 -370.5 -139.5t-202.5 -381.5q-40 -229 63 -361t316 -132q177 0 315.5 97t176.5 254l-422 -9
l37 212l669 -9q-8 -82 -28 -175q-35 -149 -111 -265t-179.5 -188t-224.5 -109t-253 -37zM468 -569l-115 58l231 371h220z" />
    <glyph glyph-name="Gdotaccent.ss02" horiz-adv-x="1582" 
d="M999 1571q-62 0 -98.5 44t-26.5 106q11 61 63.5 104.5t114.5 43.5q60 0 96 -43.5t25 -104.5q-10 -62 -61.5 -106t-112.5 -44zM744 -20q-162 0 -290.5 53t-210 149t-112.5 237.5t-1 311.5q38 219 159.5 384t297 251t379.5 86q209 0 360.5 -90t216.5 -253l-240 -107
q-39 113 -128.5 167t-216.5 54q-210 0 -370.5 -139.5t-202.5 -381.5q-40 -229 63 -361t316 -132q177 0 315.5 97t176.5 254l-422 -9l37 212l669 -9q-8 -82 -28 -175q-35 -149 -111 -265t-179.5 -188t-224.5 -109t-253 -37z" />
    <glyph glyph-name="i.loclTRK" horiz-adv-x="551" 
d="M413 1213q-62 0 -101 44t-33 106q6 61 55 104.5t112 43.5q60 0 99.5 -43.5t32.5 -104.5q-7 -62 -56 -106t-109 -44zM61 0l179 1013h251l-180 -1013h-250z" />
    <glyph glyph-name="f_t" horiz-adv-x="1366" 
d="M124 0l146 820h-198l34 193h198l37 206q56 337 350 337q83 0 167 -29l-16 -176q-40 9 -87 9q-63 0 -109.5 -39.5t-58.5 -109.5l-34 -198h228q75 0 127.5 43t67.5 123l28 164h229l-57 -330h216l-34 -193h-217l-89 -499q-11 -69 12.5 -99t82.5 -30h96l-34 -192h-160
q-141 0 -208 83.5t-42 228.5l90 508h-371l-145 -820h-249z" />
    <glyph glyph-name="t_t" horiz-adv-x="1408" 
d="M428 0q-141 0 -208 83.5t-42 228.5l90 508h-202l34 193h71q64 0 110 39t58 104l24 138h241l-50 -281h280q64 0 110 39t57 104l25 138h241l-50 -281h217l-34 -193h-217l-89 -499q-12 -69 12 -99t83 -30h96l-34 -192h-161q-140 0 -207.5 83.5t-42.5 228.5l91 508h-411
l-89 -499q-11 -69 12.5 -99t82.5 -30h96l-34 -192h-160z" />
    <glyph glyph-name="uni0308.case" 
d="M-457 1571q-53 0 -85.5 38.5t-23.5 92.5q10 54 55.5 91.5t99.5 37.5q53 0 85 -38t22 -91q-9 -54 -54.5 -92.5t-98.5 -38.5zM-57 1571q-54 0 -85.5 38.5t-22.5 92.5q10 54 55 91.5t99 37.5t85 -37.5t21 -91.5q-9 -54 -54 -92.5t-98 -38.5z" />
    <glyph glyph-name="uni0307.case" 
d="M-72 1571q-62 0 -98.5 44t-26.5 106q11 61 63.5 104.5t114.5 43.5q60 0 96 -43.5t25 -104.5q-10 -62 -61.5 -106t-112.5 -44z" />
    <glyph glyph-name="gravecomb.case" 
d="M-4 1571l-179 265l141 89l196 -354h-158z" />
    <glyph glyph-name="acutecomb.case" 
d="M-249 1571l321 354l109 -89l-272 -265h-158z" />
    <glyph glyph-name="uni030B.case" 
d="M-621 1571l321 354l109 -89l-272 -265h-158zM-250 1571l322 354l109 -89l-272 -265h-159z" />
    <glyph glyph-name="uni0302.case" 
d="M-301 1571h-157l274 298h158l170 -298h-159l-107 205z" />
    <glyph glyph-name="uni030C.case" 
d="M-241 1571l-169 298h157l107 -206l180 206h158l-274 -298h-159z" />
    <glyph glyph-name="uni0306.case" 
d="M-263 1571q-166 0 -249 69t-56 218h146q-15 -84 34 -125.5t146 -41.5q99 0 162.5 41t78.5 126h146q-27 -149 -134 -218t-274 -69z" />
    <glyph glyph-name="uni030A.case" 
d="M-125 1571q-89 0 -144.5 53.5t-58.5 138.5q-4 105 73 185.5t190 80.5q90 0 143.5 -53t55.5 -137q4 -105 -72 -186.5t-187 -81.5zM-114 1681q62 0 101.5 41.5t39.5 97.5q0 45 -28 74.5t-75 29.5q-60 0 -100 -44.5t-40 -100.5q0 -45 27 -71.5t75 -26.5z" />
    <glyph glyph-name="tildecomb.case" 
d="M-139 1564q-120 0 -174 115q-22 52 -71 52q-43 0 -75 -42.5t-44 -109.5h-132q23 124 96.5 202.5t173.5 78.5q119 0 173 -114q23 -52 73 -52q44 0 74.5 40.5t42.5 109.5h133q-23 -123 -95 -201.5t-175 -78.5z" />
    <glyph glyph-name="uni0304.case" 
d="M-617 1571l26 150h658l-26 -150h-658z" />
    <glyph glyph-name="hookabovecomb.case" 
d="M-154 1536l23 130q117 21 131 101q6 32 -10 53t-52 21q-46 0 -92 -36l-47 87q76 55 168 55q88 0 132 -48t31 -125q-20 -117 -157 -157l-13 -81h-114z" />
    <glyph glyph-name="uni0312.case" 
d="M-25 1892h179l-180 -321h-258z" />
    <glyph glyph-name="uni0338.case" 
d="M-1021 -11l1107 1589l108 -65l-1106 -1588z" />
    <glyph glyph-name="uni03060301" 
d="M-319 1687l321 354l110 -90l-273 -264h-158zM-323 1197q-160 0 -242.5 89t-53.5 250h146q-17 -96 30 -157.5t140 -61.5q95 0 164.5 61t86.5 158h146q-29 -161 -142 -250t-275 -89z" />
    <glyph glyph-name="uni03060300" 
d="M-316 1687l-178 264l140 90l196 -354h-158zM-323 1197q-160 0 -242.5 89t-53.5 250h146q-17 -96 30 -157.5t140 -61.5q95 0 164.5 61t86.5 158h146q-29 -161 -142 -250t-275 -89z" />
    <glyph glyph-name="uni03060309" 
d="M-302 1622l23 130q116 21 131 101q5 33 -10.5 53.5t-51.5 20.5q-47 0 -92 -36l-47 88q75 54 168 54q88 0 132 -47.5t31 -125.5q-21 -117 -156 -157l-14 -81h-114zM-323 1197q-160 0 -242.5 89t-53.5 250h146q-17 -96 30 -157.5t140 -61.5q95 0 164.5 61t86.5 158h146
q-29 -161 -142 -250t-275 -89z" />
    <glyph glyph-name="uni03060303" 
d="M-107 1679q-108 0 -154 100q-18 43 -57 43q-36 0 -62 -36t-36 -94h-124q20 111 85 181t154 70q108 0 153 -101q17 -42 60 -42q73 0 96 129h124q-19 -109 -83.5 -179.5t-155.5 -70.5zM-323 1197q-160 0 -242.5 89t-53.5 250h146q-17 -96 30 -157.5t140 -61.5
q95 0 164.5 61t86.5 158h146q-29 -161 -142 -250t-275 -89z" />
    <glyph glyph-name="uni03020301" 
d="M-220 1687l321 354l110 -90l-273 -264h-158zM-359 1238h-158l275 298h158l169 -298h-158l-107 206z" />
    <glyph glyph-name="uni03020300" 
d="M-217 1687l-178 264l140 90l196 -354h-158zM-359 1238h-158l275 298h158l169 -298h-158l-107 206z" />
    <glyph glyph-name="uni03020309" 
d="M-203 1622l23 130q116 21 131 101q5 33 -10.5 53.5t-51.5 20.5q-47 0 -92 -36l-47 88q75 54 168 54q88 0 132 -47.5t31 -125.5q-21 -117 -156 -157l-14 -81h-114zM-359 1238h-158l275 298h158l169 -298h-158l-107 206z" />
    <glyph glyph-name="uni03020303" 
d="M-8 1679q-108 0 -154 100q-18 43 -57 43q-36 0 -62 -36t-36 -94h-124q20 111 85 181t154 70q108 0 153 -101q17 -42 60 -42q73 0 96 129h124q-19 -109 -83.5 -179.5t-155.5 -70.5zM-359 1238h-158l275 298h158l169 -298h-158l-107 206z" />
    <glyph glyph-name="uni03060301.case" 
d="M-267 1996l321 354l109 -89l-272 -265h-158zM-263 1571q-166 0 -249 69t-56 218h146q-15 -84 34 -125.5t146 -41.5q99 0 162.5 41t78.5 126h146q-27 -149 -134 -218t-274 -69z" />
    <glyph glyph-name="uni03060300.case" 
d="M-264 1996l-179 265l141 89l196 -354h-158zM-263 1571q-166 0 -249 69t-56 218h146q-15 -84 34 -125.5t146 -41.5q99 0 162.5 41t78.5 126h146q-27 -149 -134 -218t-274 -69z" />
    <glyph glyph-name="uni03060309.case" 
d="M-246 1961l23 130q117 21 131 101q6 32 -10 53t-52 21q-46 0 -92 -36l-47 87q76 55 168 55q88 0 132 -48t31 -125q-20 -117 -157 -157l-13 -81h-114zM-263 1571q-166 0 -249 69t-56 218h146q-15 -84 34 -125.5t146 -41.5q99 0 162.5 41t78.5 126h146q-27 -149 -134 -218
t-274 -69z" />
    <glyph glyph-name="uni03060303.case" 
d="M-37 1989q-120 0 -174 115q-22 52 -71 52q-43 0 -75 -42.5t-44 -109.5h-132q23 124 96.5 202.5t173.5 78.5q119 0 173 -114q23 -52 73 -52q44 0 74.5 40.5t42.5 109.5h133q-23 -123 -95 -201.5t-175 -78.5zM-263 1571q-166 0 -249 69t-56 218h146q-15 -84 34 -125.5
t146 -41.5q99 0 162.5 41t78.5 126h146q-27 -149 -134 -218t-274 -69z" />
    <glyph glyph-name="uni03020301.case" 
d="M-162 2007l321 354l109 -89l-272 -265h-158zM-301 1571h-157l274 298h158l170 -298h-159l-107 205z" />
    <glyph glyph-name="uni03020300.case" 
d="M-159 2007l-179 265l141 89l196 -354h-158zM-301 1571h-157l274 298h158l170 -298h-159l-107 205z" />
    <glyph glyph-name="uni03020309.case" 
d="M-141 1972l23 130q117 21 131 101q6 32 -10 53t-52 21q-45 0 -92 -36l-47 87q76 55 168 55q88 0 132 -48t31 -125q-20 -117 -157 -157l-13 -81h-114zM-301 1571h-157l274 298h158l170 -298h-159l-107 205z" />
    <glyph glyph-name="uni03020303.case" 
d="M68 2000q-120 0 -174 115q-22 52 -71 52q-43 0 -75 -42.5t-44 -109.5h-132q23 124 96.5 202.5t173.5 78.5q119 0 173 -114q23 -52 73 -52q44 0 74.5 40.5t42.5 109.5h133q-23 -123 -95 -201.5t-175 -78.5zM-301 1571h-157l274 298h158l170 -298h-159l-107 205z" />
    </font>
</defs>
</svg>
